[Login] or [Signup]
Login
Username:
Password:
[Signup]
[Recover Account]


Poll


You must be logged in to view polls



Torrent Details For "The Equalizer 2 (2018) 720p NEW HDTS x264 AAC 800MB - MovCr"

The Equalizer 2 (2018) 720p NEW HDTS x264 AAC 800MB - MovCr

Download this torrent | Magnet Download
Health:
Seeds: 0
Leechers: 0
Completed:
Last Checked: 04-10-2018 16:03:14
External Torrent
Update Stats
Download Magnet


Poster


iMDB
Imdb Picture Title: The Equalizer 2
Year: 2018
Runtime: 121 minutes
Votes: 1054
Rating: 7.2/10
Language: English
Country: USA
All Genres: Action, Crime, Thriller
Plot Outline: Robert McCall serves an unflinching justice for the exploited and oppressed, but how far will he go when that is someone he loves?


Tagline: There Is No Equal
Director: Antoine Fuqua
Writing By: Richard Wenk,Michael Sloan,Richard Lindheim,
Produced By: Molly Allen,Todd Black,David J. Bloomfield,Jason Blumenthal,Tony Eldridge,Antoine Fuqua,Mace Neufeld,Kat Samick,Alex Siskin,Michael Sloan,Steve Tisch,Denzel Washington,Richard Wenk,
Music: Harry Gregson-Williams
Cast:
Denzel Washington as Robert McCall
Pedro Pascal as Dave York
Ashton Sanders as Miles Whittaker
Orson Bean as Sam Rubinstein
Bill Pullman as Brian Plummer
Melissa Leo as Susan Plummer
Jonathan Scarfe as Resnik
Sakina Jaffrey as Fatima
Kazy Tauginas as Ari
Garrett Golden as Kovac
Trailers:
Trailer #2
Trailer #1


Watch-Free-HD     Download

Details
Name:The Equalizer 2 (2018) 720p NEW HDTS x264 AAC 800MB - MovCr
Description:
Our Site URL    http://movcr.cc


The Equalizer 2 (2018) 720p NEW HDTS x264 AAC 800MB - MovCr



 http://www.imdb.com/title/tt3766354/

 


General
Unique ID                                : 102547558749765079209938870190350274011 (0x4D25F10060704563F0E061D47B0C0DDB)
Complete name                            : www.MovCr.cc - The Equalizer 2 (2018) 720p NEW HDTS x264 AAC 800MB - MovCr.mkv
Format                                   : Matroska
Format version                           : Version 4 / Version 2
File size                                : 815 MiB
Duration                                 : 1 h 55 min
Overall bit rate                         : 990 kb/s
Movie name                               : www.MovCr.cc
Encoded date                             : UTC 2018-10-04 14:54:06
Writing application                      : mkvmerge v26.0.0 ('In The Game') 64-bit
Writing library                          : libebml v1.3.6 + libmatroska v1.4.9

Video
ID                                       : 1
Format                                   : AVC
Format/Info                              : Advanced Video Codec
Format profile                           : [email protected]
Format settings                          : 2 Ref Frames
Format settings, CABAC                   : No
Format settings, RefFrames               : 2 frames
Codec ID                                 : V_MPEG4/ISO/AVC
Duration                                 : 1 h 55 min
Bit rate                                 : 856 kb/s
Width                                    : 1 280 pixels
Height                                   : 544 pixels
Display aspect ratio                     : 2.35:1
Frame rate mode                          : Constant
Frame rate                               : 30.000 FPS
Color space                              : YUV
Chroma subsampling                       : 4:2:0
Bit depth                                : 8 bits
Scan type                                : Progressive
Bits/(Pixel*Frame)                       : 0.041
Stream size                              : 705 MiB (86%)
Title                                    : www.MovCr.cc
Language                                 : English
Default                                  : Yes
Forced                                   : No

Audio
ID                                       : 2
Format                                   : AAC
Format/Info                              : Advanced Audio Codec
Format profile                           : LC
Codec ID                                 : A_AAC-2
Duration                                 : 1 h 55 min
Bit rate                                 : 132 kb/s
Channel(s)                               : 2 channels
Channel positions                        : Front: L R
Sampling rate                            : 48.0 kHz
Frame rate                               : 46.875 FPS (1024 SPF)
Compression mode                         : Lossy
Stream size                              : 108 MiB (13%)
Title                                    : www.MovCr.cc
Language                                 : English
Default                                  : Yes
Forced                                   : No




               
Category:Movies > Pre-Releases
Lang:English  English
Total Size:814.90 MB
Info Hash:a5c24e2af806660ed0048dec2939c13e7094faf1
Added By:MAZE
Date Added:04-10-2018 16:03:14
Views:275
Hits:11

Download Torrent

Ratings:Not Yet Rated (Log in to rate it)


Tracker:
udp://tracker.coppersurfer.tk:6969/announce


File List: 


Comments

No comments still posted

Powered by 10 Hamsters v2-svn -|- Page Generated In 1.237773 secs.
-|- RSS FEED
Theme By: Nikkbu