[Login] or [Signup]
Login
Username:
Password:
[Signup]
[Recover Account]


Poll


You must be logged in to view polls



Torrent Details For " Gayatri (2018 - Hindi Dubbed) - 1CD - HDTV Rip[x264 - AAC3(5.1Ch)]"

Gayatri (2018 - Hindi Dubbed) - 1CD - HDTV Rip[x264 - AAC3(5.1Ch)]

Download this torrent | Magnet Download
Health:
Seeds: 0
Leechers: 9
Completed: 18 
Last Checked: 21-10-2018 14:08:38
External Torrent
Update Stats
Download Magnet


Poster


iMDB
Title: Gayatri
Year: 2018
Runtime: 125 minutes
Votes: 465
Rating: 8.3/10
Language: Telugu
Director: Madan
Writing By: Diamond Ratna Babu,Bayyavarapu Ravi,
Produced By: Mohan Babu,
Music: S. Thaman
Cast:
Ali as Salman Khan
Rajsekhar Aningi as Public Prosecutor
Giri Babu as
Mohan Babu as Sivaji
Raghu Babu as
Anasuya Bharadwaj as Sreshta
Tanikella Bharani as Lawyer
Brahmanandam as Loknatham
Jeeva as
Srinivasa Rao Kota as Judge


Watch-Free-HD     Download

Details
Name: Gayatri (2018 - Hindi Dubbed) - 1CD - HDTV Rip[x264 - AAC3(5.1Ch)]
Description:
          Gayatri (2018 - Hindi Dubbed) - 1CD -
HDTV Rip[x264 - AAC3(5.1Ch)]  
 





General
Format                                   : Matroska
Format version                           : Version 4
File size                                : 701 MiB
Duration                                 : 2 h 5 min

Video
ID                                       : 1
Format                                   : AVC
Format/Info                              : Advanced Video Codec
Format profile                           : [email protected]
Format settings                          : CABAC / 4 Ref Frames
Format settings, CABAC                   : Yes
Format settings, RefFrames               : 4 frames
Codec ID                                 : V_MPEG4/ISO/AVC
Duration                                 : 2 h 5 min
Bit rate                                 : 648 kb/s
Width                                    : 640 pixels
Height                                   : 272 pixels
Display aspect ratio                     : 2.35:1
Frame rate mode                          : Constant
Frame rate                               : 25.000 FPS
Color space                              : YUV
Chroma subsampling                       : 4:2:0
Bit depth                                : 8 bits
Scan type                                : Progressive
Bits/(Pixel*Frame)                       : 0.149
Stream size                              : 584 MiB (83%)

Audio
ID                                       : 2
Format                                   : AAC LC SBR
Commercial name                          : HE-AAC
Format settings                          : Explicit
Codec ID                                 : A_AAC-2
Duration                                 : 2 h 5 min
Bit rate                                 : 128 kb/s
Channel(s)                               : 6 channels
Channel layout                           : C L R Ls Rs LFE
Sampling rate                            : 48.0 kHz
Stream size                              : 115 MiB (16%)


  Thumbnail  





Category:Movies > South Dub
Lang:Hindi
Total Size:700.79 MB
Info Hash:e687dec3e79f3e2b75383d1622c2692b26f7cab2
Added By:CyberTron
Date Added:29-09-2018 04:58:03
Views:695
Hits:41

Download Torrent

Ratings:Not Yet Rated (Log in to rate it)

  


Tracker:
udp://tracker.trackerfix.com:80/announce


File List: 


Comments

No comments still posted

Powered by 10 Hamsters v2-svn -|- Page Generated In 0.941381 secs.
-|- RSS FEED
Theme By: Nikkbu