[Login] or [Signup]
Login
Username:
Password:
[Signup]
[Recover Account]


Poll


You must be logged in to view polls



Torrent Details For "Sex Doll (2017) 720p Bluray UNRATED 1Gb x264 English [LoveHD]"

Sex Doll (2017) 720p Bluray UNRATED 1Gb x264 English [LoveHD]

Download this torrent | Magnet Download
Health:
Seeds: 0
Leechers: 7
Completed:
Last Checked: 04-08-2018 13:39:46
External Torrent
Update Stats
Download Magnet


Poster


iMDB
Imdb Picture Title: Sex Doll
Year: 2016
Runtime: 102 minutes
Votes: 188
Rating: 4.7/10
Language: English, French
Country: UK, France
All Genres: Thriller
Plot Outline: Set in London's world of high class call girls, Amoureux Solitaires tells the story of London based French escort Virginie, and Rupert, a man who rescues trafficked girls - A tale of modern love.
Director: Sylvie Verheyde
Writing By: Sylvie Verheyde,
Produced By: Bruno Berthemy,Rachel Dargavel,Bertrand Faivre,Soledad Gatti-Pascual,
Plot:

Set in London's world of high class call girls, Amoureux Solitaires tells the story of London based French escort Virginie, and Rupert, a man who rescues trafficked girls - A tale of modern love.

- Written by Soledad Gatti-Pascual
Cast:
Hafsia Herzi as Virginie
Ash Stymest as Rupert
Karole Rocher as Raphäelle
Paul Hamy as Cook
Ira Max as Sofia
Lindsay Karamoh as Electre
Myriam Djeljeli as La petite soeur
Jeremy Bennett as Manor House client père
Simon Killick as Manor House client fils
Wayne Swann as Client 1 (cheminée)
Trailers:
Sex Doll


Watch-Free-HD     Download

Details
Name:Sex Doll (2017) 720p Bluray UNRATED 1Gb x264 English [LoveHD]
Description:



Sex Doll (2017) 720p Bluray UNRATED 1Gb x264 English [LoveHD]



Plot:-
Set in London's world of high class call girls, Amoureux Solitaires tells the story of London based French escort Virginie, and Rupert, a man who rescues trafficked girls - A tale of modern love.
Director: Sylvie Verheyde
Writer: Sylvie Verheyde (screenplay)
Stars: Hafsia Herzi, Ash Stymest, Karole Rocher
Release Date: 10 February 2017 (USA)
IMDB: http://www.imdb.com/title/tt4937564

Screenshots:- Click to Enlarge:-

 http://imgchili.net/show/106901/106901959_sedollll_(1).png
 http://imgchili.net/show/106901/106901960_sedollll_(2).png
 http://imgchili.net/show/106901/106901961_sedollll_(3).png
 http://imgchili.net/show/106901/106901963_sedollll_(4).png
 http://imgchili.net/show/106901/106901964_sedollll_(5).png
 http://imgchili.net/show/106901/106901965_sedollll_(6).png


Quote:

Format                                   : Matroska
Format version                           : Version 4 / Version 2
File size                                : 1.00 GiB
Duration                                 : 1 h 42 min
Overall bit rate                         : 1 393 kb/s

Video
ID                                       : 1
Format                                   : AVC
Format/Info                              : Advanced Video Codec
Format profile                           : [email protected]
Format settings, CABAC                   : Yes
Format settings, ReFrames                : 3 frames
Codec ID                                 : V_MPEG4/ISO/AVC
Duration                                 : 1 h 42 min
Bit rate                                 : 1 280 kb/s
Width                                    : 1 280 pixels
Height                                   : 720 pixels
Display aspect ratio                     : 16:9
Frame rate mode                          : Constant
Frame rate                               : 23.976 (24000/1001) FPS
Color space                              : YUV
Chroma subsampling                       : 4:2:0
Bit depth                                : 8 bits
Scan type                                : Progressive
Bits/(Pixel*Frame)                       : 0.058
Stream size                              : 929 MiB (91%)
Title                                    : LoveHD
Writing library                          : x264 core 148 r2643 5c65704

Audio
ID                                       : 2
Format                                   : AAC
Format/Info                              : Advanced Audio Codec
Format profile                           : LC
Codec ID                                 : A_AAC
Duration                                 : 1 h 42 min
Bit rate                                 : 129 kb/s
Channel(s)                               : 2 channels
Channel positions                        : Front: L R
Sampling rate                            : 48.0 kHz
Frame rate                               : 46.875 FPS (1024 spf)
Compression mode                         : Lossy
Delay relative to video                  : -21 ms
Stream size                              : 94.6 MiB (9%)
Title                                    : LoveHD
Language                                 : English
Default                                  : Yes
Forced                                   : No




To keep us going Support us by donating Bitcoin: 1DzidrnvDgq95yDEqnsByYw4D5J2UH6jLZ


If you like my post, don't forget to say Thanks.


Category:Movies > 720P Bluray
Lang:English  English
Total Size:1.00 GB
Info Hash:cd271cc39dea1b0b7f76cffa60341e79c37a65bd
Added By:sharmi123
Date Added:06-07-2017 07:36:32
Views:935
Hits:171

Download Torrent

Ratings:Not Yet Rated (Log in to rate it)


Tracker:
udp://tracker.opentrackr.org:1337/announce


File List: 


Comments

No comments still posted

Powered by 10 Hamsters v2-svn -|- Page Generated In 2.666865 secs.
-|- RSS FEED
Theme By: Nikkbu