[Login] or [Signup]
Login
Username:
Password:
[Signup]
[Recover Account]


Poll


You must be logged in to view polls



Torrent Details For "The.Good.Witchs.Gift.2010.1080p.WEBRip.DD2.0.x264-TrollHD [HDSector]"

The.Good.Witchs.Gift.2010.1080p.WEBRip.DD2.0.x264-TrollHD [HDSector]

Download this torrent | Magnet Download
Health:
Seeds: 0
Leechers: 26
Completed:
Last Checked: 01-09-2018 16:11:57
External Torrent
Update Stats
Download Magnet


Poster


iMDB
Imdb Picture Title: The Good Witch's Gift
Year: 2010
Runtime: 83 minutes
Votes: 1182
Rating: 7.3/10
Language: English
Country: Canada
All Genres: Drama, Family, Fantasy
Plot Outline: Almost as soon as Jake and Cassie decide to get married on Christmas Eve, complications arise. Ex-con Leon Deeks arrives in town, and Jake is asked by the mayor to make him his top priority...
Director: Craig Pryce
Writing By: Rod Spence,G. Ross Parker,
Produced By: Orly Adelson,Janina Barrett,Catherine Bell,Jonathan Eskenas,Andrea Raffaghello,Frank Siracusa,
Music: Jack Lenz
Plot:

Almost as soon as Jake and Cassie decide to get married on Christmas Eve, complications arise. Ex-con Leon Deeks arrives in town, and Jake is asked by the mayor to make him his top priority. At the same time, Jake's having trouble securing the wedding license since he can't find Cassie's documents proving her existence. There's also the difficulty in finding a wedding cake at the last minute. Last but not least, Jake's kids are upset: Brandon wants to spend time with his new girlfriend, and is feuding with his sister Lori. Meanwhile, Lori manages to lose Cassie's wedding ring.

- Written by Mya

Jake hopes to break Brandion's seasonal gloom since his wife died on Christmas Eve by finally wedding Cassie then. The kids' initial joyful acclaim dampens as Brandon is furious at sister Lori for bluntly suspecting his girlfriend of stealing Cassie's heirloom wedding ring from the shop. Mayor Tom Tinsdale lost his shirt in the real estate crisis, so his haughty big spender wife Martha hopes to launch a career as party planner with Jake's wedding, but ignores the couple's more modest taste. Deputy Derek Sanders falls in love with the caterer despite being assigned to watch ex-con Leon Deeks, who is suspected of retrieving his bank robbery loot or worse, but accepts a charity Santa job and desperately hopes to reunite his family despite being divorced is jail. Failing obsolete, grandfather George considers moving to Montréal, but the manor offers an alternative.

- Written by KGF Vissers
Cast:
Catherine Bell as Cassandra Nightingale
Chris Potter as Jake Russell
Catherine Disher as Martha Tinsdale
Peter MacNeill as George O'Hanrahan
Matthew Knight as Brandon Russell
Elizabeth Lennie as Gwen
Hannah Endicott-Douglas as Lori Russell
Noah Cappe as Deputy Derek Sanders
Paul Miller as Mayor Tom Tinsdale
Laura Bertram as Betty


Watch-Free-HD     Download

Details
Name:The.Good.Witchs.Gift.2010.1080p.WEBRip.DD2.0.x264-TrollHD [HDSector]
Description:
Video
ID                                       : 1
Format                                   : AVC
Format/Info                              : Advanced Video Codec
Format profile                           : [email protected]
Format settings, CABAC                   : Yes
Format settings, ReFrames                : 4 frames
Codec ID                                 : V_MPEG4/ISO/AVC
Duration                                 : 1 h 27 min
Bit rate mode                            : Variable
Bit rate                                 : 13.5 Mb/s
Maximum bit rate                         : 15.0 Mb/s
Width                                    : 1 920 pixels
Height                                   : 1 080 pixels
Display aspect ratio                     : 16:9
Frame rate mode                          : Constant
Frame rate                               : 23.976 (24000/1001) FPS

Audio
ID                                       : 2
Format                                   : E-AC-3
Format/Info                              : Enhanced Audio Coding 3
Format settings, Endianness              : Big
Codec ID                                 : A_EAC3
Duration                                 : 1 h 27 min
Bit rate mode                            : Constant
Bit rate                                 : 224 kb/s
Channel(s)                               : 2 channels
Channel positions                        : Front: L R
Sampling rate                            : 48.0 kHz
Frame rate                               : 187.500 FPS (256 spf)
Compression mode                         : Lossy
Stream size                              : 140 MiB (2%)
Language                                 : English
Service kind                             : Complete Main
Default                                  : Yes
Forced                                   : No

Text
ID                                       : 3
Format                                   : UTF-8
Codec ID                                 : S_TEXT/UTF8
Codec ID/Info                            : UTF-8 Plain Text
Duration                                 : 1 h 26 min
Bit rate                                 : 70 b/s
Count of elements                        : 1270
Stream size                              : 44.2 KiB (0%)
Language                                 : English
Default                                  : No
Forced                                   : No







Category:Movies > HDRips
Lang:English  English
Total Size:8.42 GB
Info Hash:f2b9acf816fff28f69ca570c0091c18d7e8cfc7a
Added By:SULTAN
Date Added:05-07-2017 19:01:17
Views:173
Hits:26

Download Torrent

Ratings:Not Yet Rated (Log in to rate it)


Tracker:
http://tracker.trackerfix.com:80/announce


File List: 


Comments

No comments still posted

Powered by 10 Hamsters v2-svn -|- Page Generated In 0.582132 secs.
-|- RSS FEED
Theme By: Nikkbu