[Login] or [Signup]
Login
Username:
Password:
[Signup]
[Recover Account]


Poll


You must be logged in to view polls



Torrent Details For "Tumsa Nahin Dekha 2004 Hindi 720p-=!ARIF HD 241 R-B!=-"

Tumsa Nahin Dekha 2004 Hindi 720p-=!ARIF HD 241 R-B!=-

Download this torrent | Magnet Download
Health:
Seeds: 0
Leechers: 4
Completed:
Last Checked: 10-10-2018 05:15:41
External Torrent
Update Stats
Download Magnet


Poster


iMDB
Title: Tumsa Nahin Dekha
Year: 2004
Runtime: 128 minutes
Votes: 583
Rating: 4.6/10
Language: Hindi
Director: Anurag Basu
Writing By: Subodh Chopra,
Produced By: Mukesh Bhatt,Kumkum Saigal,
Music: Raju Rao Shravan Rathod Nadeem Saifi
Cast:
Emraan Hashmi as Daksh Mital
Dia Mirza as Jiya
Anupam Kher as John Uncle
Sharat Saxena as Devendra Madhwani
Surekha Sikri as Daksh's grandma
Uday Tikekar as Mittal (Uday's father)
Pooja Bharti as Anahita Madhwani
Avtar Gill as Bar Owner
Atul Parchure as Nikki (Jiya's brother)
Rana Jung Bahadur as


Watch-Free-HD     Download

Details
Name:Tumsa Nahin Dekha 2004 Hindi 720p-=!ARIF HD 241 R-B!=-
Description:


Media Info


Complete name               :Tumsa Nahin Dekha 2004 Hindi 720p-=!ARIF HD 241 R-B!=-\Tumsa Nahin Dekha 2004 Hindi 720p-=!ARIF HD 241 R-B!=-.mkv
Format                      : Matroska
Format version              : Version 4 / Version 2
File size                   : 2.22 GiB
Duration                    : 2 h 7 min
Overall bit rate            : 2 496 kb/s
Movie name                  : Tumsa Nahin Dekha 2004 Hindi 720p-=!ARIF HD 241 R-B!=-
Encoded date                : UTC 2018-09-26 10:10:33
Writing application         : mkvmerge v10.0.0 ('To Drown In You') 64bit
Writing library             : libebml v1.3.4 + libmatroska v1.4.5
Cover                       : Yes
Attachments                 : Cover.png

Video
ID                          : 1
Format                      : AVC
Format/Info                 : Advanced Video Codec
Format profile              : [email protected]
Format settings             : CABAC / 4 Ref Frames
Format settings, CABAC      : Yes
Format settings, ReFrames   : 4 frames
Codec ID                    : V_MPEG4/ISO/AVC
Duration                    : 2 h 7 min
Bit rate                    : 2 332 kb/s
Width                       : 1 280 pixels
Height                      : 720 pixels
Display aspect ratio        : 2.35:1
Original display aspect rat : 2.35:1
Frame rate mode             : Constant
Frame rate                  : 24.000 FPS
Color space                 : YUV
Chroma subsampling          : 4:2:0
Bit depth                   : 8 bits
Scan type                   : Progressive
Bits/(Pixel*Frame)          : 0.105
Stream size                 : 2.07 GiB (93%)
Writing library             : x264 core 155 r2901 7d0ff22
Default                     : Yes
Forced                      : No
Color range                 : Limited
Color primaries             : BT.709
Transfer characteristics    : BT.709
Matrix coefficients         : BT.709

Audio
ID                          : 2
Format                      : AAC
Format/Info                 : Advanced Audio Codec
Format profile              : LC
Codec ID                    : A_AAC-2
Duration                    : 2 h 7 min
Bit rate                    : 160 kb/s
Channel(s)                  : 2 channels
Channel positions           : Front: L R
Sampling rate               : 48.0 kHz
Frame rate                  : 46.875 FPS (1024 SPF)
Compression mode            : Lossy
Delay relative to video     : -21 ms
Stream size                 : 145 MiB (6%)
Language                    : Hindi
Default                     : Yes
Forced                      : No


Screen Short












Category:Movies > Bollywood
Lang:Hindi
Total Size:2.22 GB
Info Hash:55c42d2ae3dd9f85e080a04924ee6fa7e91edfe9
Added By:sdhani00007
Date Added:26-09-2018 11:43:46
Views:944
Hits:65

Download Torrent

Ratings:Not Yet Rated (Log in to rate it)


Tracker:
udp://tracker.openbittorrent.com:80/announce


File List: 


Comments

No comments still posted

Powered by 10 Hamsters v2-svn -|- Page Generated In 0.926303 secs.
-|- RSS FEED
Theme By: Nikkbu