[Login] or [Signup]
Login
Username:
Password:
[Signup]
[Recover Account]


Poll


You must be logged in to view polls



Torrent Details For "Jannat 2 2012 1080p Bluray 10bit x265 5.1-=!ARIF HD 241 R-B!=-"

Jannat 2 2012 1080p Bluray 10bit x265 5.1-=!ARIF HD 241 R-B!=-

Download this torrent | Magnet Download
Health:
Seeds: 1
Leechers: 6
Completed:
Last Checked: 26-09-2018 15:46:56
External Torrent
Update Stats
Download Magnet


Poster


iMDB
Original Title: Jannat 2
Title: Heaven 2
Year: 2012
Runtime: 150 minutes
Votes: 4490
Rating: 6.1/10
Language: Hindi
Director: Kunal Deshmukh
Writing By: Kapil Chopra,Sanjay Masoomm,
Produced By: Mahesh Bhatt,Mukesh Bhatt,Prasanna R. Coondapur,Kumkum Saigal,
Music: Pritam Chakraborty
Cast:
Emraan Hashmi as Sonu Dilli KKC
Randeep Hooda as ACP Pratap Raghuvanshi
Esha Gupta as Jhanvi Tomar
Mohammed Zeeshan Ayyub as Balli
Viren Basoya as Gafoor Bhai
Manish Chaudhary as Mangal Singh Tomar
Brijendra Kala as Dadda
Deepak Kohli as Vasooli Man
Rohit Pathak as Inspector Rajender
Ajay Verma as Friend
Trailers:
Jannat 2


Watch-Free-HD     Download

Details
Name:Jannat 2 2012 1080p Bluray 10bit x265 5.1-=!ARIF HD 241 R-B!=-
Description:
Jannat 2 2012 1080p Bluray 10bit x265 5.1-=!ARIF HD 241 R-B!=-



Media Info


Format                      : Matroska
Format version              : Version 4 / Version 2
File size                   : 3.50 GiB
Duration                    : 2 h 14 min
Overall bit rate            : 3 723 kb/s
Movie name                  : Jannat 2 2012 1080p Bluray 10bit x265 5.1-=!ARIF HD 241 R-B!=-
Encoded date                : UTC 2018-09-26 08:33:07
Writing application         : mkvmerge v10.0.0 ('To Drown In You') 64bit
Writing library             : libebml v1.3.4 + libmatroska v1.4.5
Cover                       : Yes
Attachments                 : Cover.jpg / cover.jpg

Video
ID                          : 1
Format                      : HEVC
Format/Info                 : High Efficiency Video Coding
Format profile              : Main [email protected]@Main
Codec ID                    : V_MPEGH/ISO/HEVC
Duration                    : 2 h 14 min
Bit rate                    : 3 149 kb/s
Width                       : 1 920 pixels
Height                      : 816 pixels
Display aspect ratio        : 2.35:1
Frame rate mode             : Constant
Frame rate                  : 24.000 FPS
Color space                 : YUV
Chroma subsampling          : 4:2:0
Bit depth                   : 10 bits
Bits/(Pixel*Frame)          : 0.084
Stream size                 : 2.96 GiB (85%)
Writing library             : x265 2.2+32-bed9f6cbca09:[Windows]
Default                     : Yes
Forced                      : No

Audio
ID                          : 2
Format                      : AAC
Format/Info                 : Advanced Audio Codec
Format profile              : LC
Codec ID                    : A_AAC-2
Duration                    : 2 h 14 min
Bit rate                    : 559 kb/s
Channel(s)                  : 6 channels
Channel positions           : Front: L C R, Side: L R, LFE
Sampling rate               : 48.0 kHz
Frame rate                  : 46.875 FPS (1024 SPF)
Compression mode            : Lossy
Delay relative to video     : 20 ms
Stream size                 : 537 MiB (15%)
Language                    : Hindi
Default                     : Yes
Forced                      : No

Text
ID                          : 3
Format                      : PGS
Muxing mode                 : zlib
Codec ID                    : S_HDMV/PGS
Codec ID/Info               : Picture based subtitle format used on BDs/HD-DVDs
Duration                    : 2 h 11 min
Bit rate                    : 13.0 kb/s
Count of elements           : 3460
Stream size                 : 12.2 MiB (0%)
Language                    : English
Default                     : No
Forced                      : No

Screen Short






Category:Movies > Bollywood
Lang:Hindi
Total Size:3.50 GB
Info Hash:a4944ff0a3f78d06e0e35f0cecc76f26629a5da8
Added By:sdhani00007
Date Added:26-09-2018 09:59:05
Views:760
Hits:70

Download Torrent

Ratings:Not Yet Rated (Log in to rate it)


Tracker:
udp://tracker.openbittorrent.com:80/announce


File List: 


Comments

No comments still posted

Powered by 10 Hamsters v2-svn -|- Page Generated In 0.432113 secs.
-|- RSS FEED
Theme By: Nikkbu