[Login] or [Signup]
Login
Username:
Password:
[Signup]
[Recover Account]


Poll


You must be logged in to view polls



Torrent Details For "Tum Haseen Main Jawan (1970) Hindi Untouched 720p WEB-DL x264 AAC - Hon3yHD"

Tum Haseen Main Jawan (1970) Hindi Untouched 720p WEB-DL x264 AAC - Hon3yHD

Download this torrent | Magnet Download
Health:
Seeds: 0
Leechers: 9
Completed:
Last Checked: 24-10-2018 13:11:11
External Torrent
Update Stats
Download Magnet


Poster


iMDB
Title: Tum Haseen Main Jawan
Year: 1970
Runtime: 148 minutes
Votes: 51
Rating: 7.1/10
Language: Hindi
Country: India
All Genres: Comedy, Romance
Plot Outline: Surendra is an army officer, and has had numerous affairs with a number of attractive young women. One day he meets with beautiful Anuradha, and falls in love with her. Anuradha too loves ...
Director: Bhappi Sonie
Writing By: Sachin Bhowmick,Sachin Bhowmick,Anand Romani,Balbir Singh,
Produced By: Bhappi Sonie,
Music: Jaikishan Dayabhai Panchal Shankarsingh Raghuwanshi
Plot:

Surendra is an army officer, and has had numerous affairs with a number of attractive young women. One day he meets with beautiful Anuradha, and falls in love with her. Anuradha too loves him, and she is introduced to his mom. Anuradha has another admirer in Ranjeet, who informs Surendra and his mom, that Anuradha is deceiving them, and is the mother of a baby boy. Surendra and his mother are shocked, and will have nothing to do with Anuradha. Then the child, in question, is kidnapped, and held for ransom. It is then Surendra comes to know the shocking truth behind the abduction, which will change his life forever.

- Written by rAjOo ([email protected])
Cast:
Dharmendra as Sunil
Hema Malini as Anuradha
Rajendra Nath as Romeo
Helen as Jina (Ranjeet's wife)
Dhumal as Seth Ganpat Rao
Sulochana Latkar as Sunil's mother
Mohan Choti as Bansidhar
Anwar Hussain as Captain Shamsher
Anjali Kadam as Gayatri Devi
Iftekhar as Raja Sahab (Anuradha's dad)


Watch-Free-HD     Download

Details
Name:Tum Haseen Main Jawan (1970) Hindi Untouched 720p WEB-DL x264 AAC - Hon3yHD
Description:

Tum Haseen Main Jawan (1970) Hindi Untouched 720p WEB-DL x264 AAC - Hon3yHD


Format                                   : MPEG-4
Format profile                           : Base Media
Codec ID                                 : isom (isom/iso2/avc1/mp41)
File size                                : 1.69 GiB
Duration                                 : 2 h 28 min
Overall bit rate                         : 1 628 kb/s


Video
ID                                       : 1
Format                                   : AVC
Format/Info                              : Advanced Video Codec
Format profile                           : [email protected]
Format settings, CABAC                   : Yes
Format settings, ReFrames                : 3 frames
Format settings, GOP                     : M=1, N=50
Codec ID                                 : avc1
Codec ID/Info                            : Advanced Video Coding
Duration                                 : 2 h 28 min
Bit rate                                 : 1 495 kb/s
Width                                    : 1 280 pixels
Height                                   : 720 pixels
Display aspect ratio                     : 16:9
Frame rate mode                          : Constant
Frame rate                               : 25.000 FPS
Color space                              : YUV
Chroma subsampling                       : 4:2:0
Bit depth                                : 8 bits
Scan type                                : Progressive
Bits/(Pixel*Frame)                       : 0.065
Stream size                              : 1.55 GiB (92%)
Writing library                          : Zencoder Video Encoding System
Color range                              : Limited
Color primaries                          : BT.709
Transfer characteristics                 : BT.709
Matrix coefficients                      : BT.709

Audio
ID                                       : 2
Format                                   : AAC
Format/Info                              : Advanced Audio Codec
Format profile                           : LC
Codec ID                                 : 40
Duration                                 : 2 h 28 min
Bit rate mode                            : Constant
Bit rate                                 : 128 kb/s
Channel(s)                               : 2 channels
Channel positions                        : Front: L R
Sampling rate                            : 44.1 kHz
Frame rate                               : 43.066 FPS (1024 spf)
Compression mode                         : Lossy
Stream size                              : 136 MiB (8%)
Default                                  : Yes
Alternate group                          : 1


                 
Category:Movies > Bollywood
Lang:Hindi
Total Size:1.69 GB
Info Hash:dd09b455c79875418c0845529b6154451240ef97
Added By:Hon3y
Date Added:17-04-2017 14:37:46
Views:423
Hits:125

Download Torrent

Ratings:Not Yet Rated (Log in to rate it)


Tracker:
udp://tracker.coppersurfer.tk:6969/announce


File List: 


Comments

No comments still posted

Powered by 10 Hamsters v2-svn -|- Page Generated In 1.339972 secs.
-|- RSS FEED
Theme By: Nikkbu