[Login] or [Signup]
Login
Username:
Password:
[Signup]
[Recover Account]


Poll


You must be logged in to view polls



Torrent Details For "Adrishya (2017) - 1CD - HDRip [x264 - AAC3(5.1Ch)]"

Adrishya (2017) - 1CD - HDRip [x264 - AAC3(5.1Ch)]

Download this torrent | Magnet Download
Health:
Seeds: 0
Leechers: 8
Completed: 40 
Last Checked: 20-10-2018 10:17:58
External Torrent
Update Stats
Download Magnet


Poster


iMDB
Title: Adrishya
Year: 2017
Runtime: 106 minutes
Votes: 30
Rating: 8.7/10
Language: Hindi
All Genres: Drama, Family, Horror
Director: Sandeep Chatterjee
Writing By: Alka Agraval,Vivek Agrawal,Sandeep Chatterjee,
Produced By: Arunjit Borah,Sandeep Chatterjee,Satish Poojary,Deepak Shah,
Music: Aslam Surty
Cast:
Nishat Mallick as Vikram
'Om' Rakesh Chaturvedi as Dr. Shastri
Archana Kotwal as Aditi
Ravi Kumar as Samar Rana
Nidhi Mahawan as Sonali
Ayesha Singh as Reena
Adbur Rehman as Dhruv
Pakhi Mendola as Pakhi
Abhijit Sinha as Inspector Godbole
Arya Priye as Dr. Ghosh


Watch-Free-HD     Download

Details
Name:Adrishya (2017) - 1CD - HDRip [x264 - AAC3(5.1Ch)]
Description:
       Adrishya (2017) - 1CD - HDRip
[x264 - AAC3(5.1Ch)]      
 
 





General
Format                                   : Matroska
Format version                           : Version 4
File size                                : 700 MiB
Duration                                 : 1 h 56 min

Video
ID                                       : 1
Format                                   : AVC
Format/Info                              : Advanced Video Codec
Format profile                           : [email protected]
Format settings                          : CABAC / 4 Ref Frames
Format settings, CABAC                   : Yes
Format settings, RefFrames               : 4 frames
Codec ID                                 : V_MPEG4/ISO/AVC
Duration                                 : 1 h 56 min
Bit rate                                 : 710 kb/s
Width                                    : 640 pixels
Height                                   : 272 pixels
Display aspect ratio                     : 2.35:1
Frame rate mode                          : Constant
Frame rate                               : 25.000 FPS
Color space                              : YUV
Chroma subsampling                       : 4:2:0
Bit depth                                : 8 bits
Scan type                                : Progressive
Bits/(Pixel*Frame)                       : 0.163
Stream size                              : 592 MiB (85%)

Audio
ID                                       : 2
Format                                   : AAC LC SBR
Commercial name                          : HE-AAC
Format settings                          : Explicit
Codec ID                                 : A_AAC-2
Duration                                 : 1 h 56 min
Bit rate                                 : 128 kb/s
Channel(s)                               : 6 channels
Channel layout                           : C L R Ls Rs LFE
Sampling rate                            : 48.0 kHz
Stream size                              : 107 MiB (15%)


Thumbnail






Category:Movies > Bollywood
Lang:Hindi
Total Size:700.12 MB
Info Hash:b32561fbd91f5b8dca276e3ac7ebf2a032da3b2a
Added By:CyberTron
Date Added:21-09-2018 13:19:51
Views:1,246
Hits:94

Download Torrent

Ratings:Not Yet Rated (Log in to rate it)

  


Tracker:
udp://tracker.trackerfix.com:80/announce


File List: 


Comments

No comments still posted

Powered by 10 Hamsters v2-svn -|- Page Generated In 0.530455 secs.
-|- RSS FEED
Theme By: Nikkbu