[Login] or [Signup]
Login
Username:
Password:
[Signup]
[Recover Account]


Poll


You must be logged in to view polls



Torrent Details For "Karenjit Kaur (2018) Season 2 Complete 720p Telugu Dubbed HDRip x264 AAC 1.3GB ESubs - MovCr"

Karenjit Kaur (2018) Season 2 Complete 720p Telugu Dubbed HDRip x264 AAC 1.3GB ESubs - MovCr

Download this torrent | Magnet Download
Health:
Seeds: 0
Leechers: 0
Completed:
Last Checked: 20-09-2018 15:34:10
External Torrent
Update Stats
Download Magnet


Poster


iMDB
Title: Karenjit Kaur - The Untold Story of Sunny Leone
Year: 2018
Language: English, Hindi
Country: India
All Genres: Biography
Plot Outline: The life story of Indian-Canadian actress and former adult film star, Sunny Leone.


Tagline: The untold story of Sunny Leone.
Director: Aditya Datt
Writing By: Niranjan Kaushik,Karan Shrikant Sharma,
Produced By: Kishor Arora,Akash Chawla,Shareen Mantri Kedia,Kanwal Kohli,Angarika Mantri,Sanjay Mehta,Arunava Sengupta,Amit Vij,Muhitt Agarwaal,
Music: Rachita Arora
Cast:
Bijay Jasjit Anand as 10 episodes, 2018
Raj Arjun as 10 episodes, 2018
Karamvir Lamba as 10 episodes, 2018
Sunny Leone as Herself 10 episodes, 2018
Vansh Pradhan as 10 episodes, 2018
Rysa Saujani as 10 episodes, 2018
Grusha Singh as 10 episodes, 2018
Marc Buckner as Daniel 3 episodes, 2018
Sujata Sehgal as Pammi Bua 3 episodes, 2018
Jan Bostock as owner of Penthouse 1 episode, 2018


Watch-Free-HD     Download

Details
Name:Karenjit Kaur (2018) Season 2 Complete 720p Telugu Dubbed HDRip x264 AAC 1.3GB ESubs - MovCr
Description:
Our Site   www.movcr.com

Karenjit Kaur (2018) Season 2 Complete 720p Telugu Dubbed HDRip x264 AAC 1.3GB ESubs - MovCr



 http://www.imdb.com/title/tt6009150/


 


General
Unique ID                                : 295277072973621628481922496794090839940 (0xDE244BB13B516440C92029F74E9C9F84)
Complete name                            : www.MovCr.com - Karenjit Kaur (2018) Season 2 Complete 720p Telugu Dubbed HDRip x264 AAC 1.3GB ESubs - MovCr.mkv
Format                                   : Matroska
Format version                           : Version 4 / Version 2
File size                                : 1.28 GiB
Duration                                 : 2 h 19 min
Overall bit rate                         : 1 315 kb/s
Movie name                               : www.MovCr.com
Encoded date                             : UTC 2018-09-20 14:20:12
Writing application                      : mkvmerge v26.0.0 ('In The Game') 64-bit
Writing library                          : libebml v1.3.6 + libmatroska v1.4.9

Video
ID                                       : 1
Format                                   : AVC
Format/Info                              : Advanced Video Codec
Format profile                           : [email protected]
Format settings                          : CABAC / 4 Ref Frames
Format settings, CABAC                   : Yes
Format settings, RefFrames               : 4 frames
Codec ID                                 : V_MPEG4/ISO/AVC
Duration                                 : 2 h 19 min
Bit rate                                 : 1 258 kb/s
Width                                    : 1 280 pixels
Height                                   : 544 pixels
Display aspect ratio                     : 2.35:1
Original display aspect ratio            : 2.35:1
Frame rate mode                          : Constant
Frame rate                               : 25.000 FPS
Color space                              : YUV
Chroma subsampling                       : 4:2:0
Bit depth                                : 8 bits
Scan type                                : Progressive
Bits/(Pixel*Frame)                       : 0.072
Stream size                              : 1.22 GiB (95%)
Title                                    : www.MovCr.com
Writing library                          : x264 core 155 r2901 7d0ff22
Encoding settings                        : cabac=1 / ref=1 / deblock=1:0:0 / analyse=0x1:0x111 / me=hex / subme=2 / psy=1 / psy_rd=1.00:0.00 / mixed_ref=0 / me_range=16 / chroma_me=1 / trellis=0 / 8x8dct=0 / cqm=0 / deadzone=21,11 / fast_pskip=1 / chroma_qp_offset=0 / threads=17 / lookahead_threads=4 / sliced_threads=0 / nr=0 / decimate=1 / interlaced=0 / bluray_compat=0 / constrained_intra=0 / bframes=3 / b_pyramid=2 / b_adapt=1 / b_bias=0 / direct=1 / weightb=1 / open_gop=0 / weightp=1 / keyint=250 / keyint_min=25 / scenecut=40 / intra_refresh=0 / rc_lookahead=10 / rc=abr / mbtree=1 / bitrate=1258 / ratetol=1.0 / qcomp=0.60 / qpmin=0 / qpmax=69 / qpstep=4 / vbv_maxrate=20000 / vbv_bufsize=25000 / nal_hrd=none / filler=0 / ip_ratio=1.40 / aq=1:1.00
Default                                  : Yes
Forced                                   : No
Color range                              : Limited
Color primaries                          : BT.709
Transfer characteristics                 : BT.709
Matrix coefficients                      : BT.709

Audio
ID                                       : 2
Format                                   : AAC
Format/Info                              : Advanced Audio Codec
Format profile                           : LC
Codec ID                                 : A_AAC-2
Duration                                 : 2 h 19 min
Bit rate                                 : 64.3 kb/s
Channel(s)                               : 2 channels
Channel positions                        : Front: L R
Sampling rate                            : 48.0 kHz
Frame rate                               : 46.875 FPS (1024 SPF)
Compression mode                         : Lossy
Delay relative to video                  : -103 ms
Stream size                              : 64.3 MiB (5%)
Title                                    : www.MovCr.com
Default                                  : Yes
Forced                                   : No

Text
ID                                       : 3
Format                                   : ASS
Codec ID                                 : S_TEXT/ASS
Codec ID/Info                            : Advanced Sub Station Alpha
Duration                                 : 2 h 18 min
Bit rate                                 : 96 b/s
Count of elements                        : 1801
Compression mode                         : Lossless
Stream size                              : 98.0 KiB (0%)
Title                                    : www.MovCr.com
Language                                 : English
Default                                  : Yes
Forced                                   : No



 
 
 
 
 
 
 
 
 
 
Category:Movies > Telugu
Lang:Telugu
Total Size:1.28 GB
Info Hash:99734cb2edd37722b363c2f6a1a3ca3c5bdd9576
Added By:MAZE
Date Added:20-09-2018 15:34:10
Views:402
Hits:22

Download Torrent

Ratings:Not Yet Rated (Log in to rate it)


Tracker:
udp://tracker.coppersurfer.tk:6969/announce


File List: 


Comments

No comments still posted

Powered by 10 Hamsters v2-svn -|- Page Generated In 1.513136 secs.
-|- RSS FEED
Theme By: Nikkbu