[Login] or [Signup]
Login
Username:
Password:
[Signup]
[Recover Account]


Poll


You must be logged in to view polls



Torrent Details For "The Magnificent Seven 2016 720p Esub BluRay Dual Audio English Hindi 5.1 GOPISAHI"

The Magnificent Seven 2016 720p Esub BluRay Dual Audio English Hindi 5.1 GOPISAHI

Download this torrent | Magnet Download
Health:
Seeds: 1
Leechers: 4
Completed: 7,009 
Last Checked: 27-09-2018 14:25:45
External Torrent
Update Stats
Download Magnet


Poster
No poster


iMDB
Imdb Picture Title: The Magnificent Seven
Year: 2016
Runtime: 132 minutes
Votes: 127831
Rating: 6.9/10
Language: English, North American Indian, Spanish
Country: USA
All Genres: Action, Adventure, Western
Plot Outline: Seven gunmen in the old west gradually come together to help a poor village against savage thieves.
Tagline: Justice has a number.
Director: Antoine Fuqua
Writing By: Akira Kurosawa,Shinobu Hashimoto,Hideo Oguni,Nic Pizzolatto,Richard Wenk,
Produced By: Bruce Berman,Roger Birnbaum,Todd Black,Antoine Fuqua,Walter Mirisch,Kat Samick,Ben Waisbren,
Music: Simon Franglen James Horner
Plot:

Director Antoine Fuqua brings his modern vision to a classic story in The Magnificent Seven. With the town of Rose Creek under the deadly control of industrialist Bartholomew Bogue, the desperate townspeople employ protection from seven outlaws, bounty hunters, gamblers and hired guns. As they prepare the town for the violent showdown that they know is coming, these seven mercenaries find themselves fighting for more than money.

The residents of a small town are being pressured by a man, Bartholomew Bogue to sell him their land for a paltry price. They gather together at the church to meet about how they should handle Bogue. Bogue shows up and then burns the church, one of the citizens stands up to Bogue and Bogue kills him. The man's wife then heads off to find help. And while at a town, she sees a man take out some men all by himself. She then approaches him and asks for his help. The man, Sam Chisolm is not interested till he is told about Bogue. He recruits a man whom he saw handle himself quite well. The man, Faraday says yes and they recruit or come across some other men of skill and they total seven. They go to the town and take care of Bogue's men. Chisolm sends one of Bogue's men to give Bogue a message. Chisolm then talks to the town telling them, they need to get ready because Bogue will be back with an army.

- Written by [email protected]

Seven gunmen in the old west gradually come together to help a poor village against savage thieves.


Cast:
Denzel Washington as Chisolm
Chris Pratt as Josh Faraday
Ethan Hawke as Goodnight Robicheaux
Vincent D'Onofrio as Jack Horne
Byung-hun Lee as Billy Rocks
Manuel Garcia-Rulfo as Vasquez
Martin Sensmeier as Red Harvest
Haley Bennett as Emma Cullen
Peter Sarsgaard as Bartholomew Bogue
Luke Grimes as Teddy Q
Trailers:
Trailer #2
Trailer #1


Watch-Free-HD     Download

Details
Name:The Magnificent Seven 2016 720p Esub BluRay Dual Audio English Hindi 5.1 GOPISAHI
Description:

#######################################################################
Information:
#######################################################################
Title: Les sept mercenaires
Year: 2016
Votes: 32598
Rating: 7.1
Language: English
Country: USA
All Genres: Action, Adventure, Western
Plot Outline: Seven gun men in the old west gradually come together to help a poor village against savage thieves.
Tagline: Justice has a number.
Director: Antoine Fuqua
Writing By: Akira Kurosawa Shinobu Hashimoto Hideo Oguni Richard Wenk Nic Pizzolatto
Produced By: Bruce Berman Roger Birnbaum Todd Black Antoine Fuqua Walter Mirisch Kat Samick Ben Waisbren
Music: Simon Franglen James Horner

#######################################################################
Description:
#######################################################################
...

Director Antoine Fuqua brings his modern vision to a classic story in The Magnificent Seven. With the town of Rose Creek under the deadly control of industrialist Bartholomew Bogue, the desperate townspeople employ protection from seven outlaws, bounty hunters, gamblers and hired guns. As they prepare the town for the violent showdown that they know is coming, these seven mercenaries find themselves fighting for more than money.

...

The residents of a small town are being pressured by a man, Bartholomew Bogue to sell him their land for a paltry price. They gather together at the church to meet about how they should handle Bogue. Bogue shows up and then burns the church, one of the citizens stands up to Bogue and Bogue kills him. The man's wife then heads off to find help. And while at a town, she sees a man take out some men all by himself. She then approaches him and asks for his help. The man, Sam Chisolm is not interested till he is told about Bogue. He recruits a man whom he saw handle himself quite well. The man, Faraday says yes and they recruit or come across some other men of skill and they total seven. They go to the town and take care of Bogue's men. Chisolm sends one of Bogue's men to give Bogue a message. Chisolm then talks to the town telling them, they need to get ready because Bogue will be back with an army.
...

Seven gun men in the old west gradually come together to help a poor village against savage thieves.


#######################################################################
Cast:
#######################################################################
... Denzel Washington as Chisolm
... Chris Pratt as Josh Faraday
... Ethan Hawke as Goodnight Robicheaux
... Vincent D'Onofrio as Jack Horne
... Byung-hun Lee as Billy Rocks
... Manuel Garcia-Rulfo as Vasquez
... Martin Sensmeier as Red Harvest
... Haley Bennett as Emma Cullen
... Peter Sarsgaard as Bartholomew Bogue
... Luke Grimes as Teddy Q

Video
ID                             : 1
Format                         : HEVC
Format/Info                    : High Efficiency Video Coding
Format profile                 : [email protected]@Main
Codec ID                       : V_MPEGH/ISO/HEVC
Duration                       : 2 h 12 min
Bit rate                       : 829 kb/s
Width                          : 1 280 pixels
Height                         : 536 pixels
Display aspect ratio           : 2.40:1
Frame rate mode                : Constant
Frame rate                     : 23.976 (24000/1001) FPS
Stream size                    : 787 MiB (84%)
Title                          : The Magnificent Seven 2016 GOPI SAHI
Writing library                : x265 1.8+2-55a4a9b920ff:[Windows][GCC 5.2.0][64 bit] 8bit+10bit+12bit

Audio #1
Format                         : AAC
Duration                       : 2 h 12 min
Bit rate                       : 56.5 kb/s
Channel(s)                     : 2 channels
Channel positions              : Front: L R
Sampling rate                  : 44.1 kHz
Frame rate                     : 43.066 FPS (1024 spf)
Stream size                    : 53.7 MiB (6%)
Language                       : English        

Audio #2
Format                         : AC-3
Duration                       : 2 h 12 min
Bit rate mode                  : Constant
Bit rate                       : 96.0 kb/s
Channel(s)                     : 6 channels
Channel positions              : Front: L C R, Side: L R, LFE
Sampling rate                  : 44.1 kHz
Frame rate                     : 28.711 FPS (1536 spf)
Stream size                    : 91.2 MiB (10%)I
Language                       : Hindi
Service kind                   : Complete Main

Text
Duration                       : 2 h 6 min
Language                       : English


Category:Movies > Hollywood Dub
Lang:Hindi
Total Size:934.62 MB
Info Hash:613f0fc6da93ff3dc919c48794ae2ae2ca9449e0
Added By:gopisahi
Date Added:02-07-2017 09:24:49
Views:391
Hits:116

Download Torrent

Ratings:Not Yet Rated (Log in to rate it)


Tracker:
udp://tracker.coppersurfer.tk:6969/announce


File List: 


Comments

No comments still posted

Powered by 10 Hamsters v2-svn -|- Page Generated In 0.124483 secs.
-|- RSS FEED
Theme By: Nikkbu