[Login] or [Signup]
Login
Username:
Password:
[Signup]
[Recover Account]


Poll


You must be logged in to view polls



Torrent Details For "Ghosts.of.Mars.2001.BluRay.720p.x264.{Dual.Audio}.[Hindi.Org-English].-.Hon3yHD"

Ghosts.of.Mars.2001.BluRay.720p.x264.{Dual.Audio}.[Hindi.Org-English].-.Hon3yHD

Download this torrent | Magnet Download
Health:
Seeds: 0
Leechers: 1
Completed: 626 
Last Checked: 23-10-2018 06:30:41
External Torrent
Update Stats
Download Magnet


Poster


Watch-Free-HD     Download

Details
Name:Ghosts.of.Mars.2001.BluRay.720p.x264.{Dual.Audio}.[Hindi.Org-English].-.Hon3yHD
Description:
Format                      : Matroska
Format version              : Version 4 / Version 2
File size                   : 1.04 GiB
Duration                    : 1 h 38 min
Overall bit rate            : 1 523 kb/s
Movie name                  : ~Hammer~

Video
ID                          : 1
Format                      : AVC
Format/Info                 : Advanced Video Codec
Format profile              : [email protected]
Format settings             : CABAC / 8 Ref Frames
Format settings, CABAC      : Yes
Format settings, ReFrames   : 8 frames
Codec ID                    : V_MPEG4/ISO/AVC
Duration                    : 1 h 38 min
Bit rate                    : 1 200 kb/s
Width                       : 1 280 pixels
Height                      : 532 pixels
Display aspect ratio        : 2.40:1
Frame rate mode             : Constant
Frame rate                  : 23.976 (24000/1001) FPS

Audio #1
ID                          : 2
Format                      : AAC
Format/Info                 : Advanced Audio Codec
Format profile              : LC
Codec ID                    : A_AAC-2
Duration                    : 1 h 38 min
Bit rate                    : 160 kb/s
Channel(s)                  : 2 channels
Channel positions           : Front: L R
Sampling rate               : 48.0 kHz
Frame rate                  : 46.875 FPS (1024 SPF)
Compression mode            : Lossy
Delay relative to video     : -21 ms
Stream size                 : 112 MiB (11%)
Title                       : Stereo
Language                    : Hindi

Audio #2
ID                          : 3
Format                      : AAC
Format/Info                 : Advanced Audio Codec
Format profile              : LC
Codec ID                    : A_AAC-2
Duration                    : 1 h 38 min
Bit rate                    : 160 kb/s
Channel(s)                  : 2 channels
Channel positions           : Front: L R
Sampling rate               : 48.0 kHz
Frame rate                  : 46.875 FPS (1024 SPF)
Compression mode            : Lossy
Delay relative to video     : -21 ms
Stream size                 : 112 MiB (11%)
Title                       : Stereo

 
Category:Movies > Hollywood Dub
Lang:Hindi
Total Size:1.04 GB
Info Hash:6ebc4a429b61a070495916b6a2791f28eec0419a
Added By:Hon3y
Date Added:11-09-2018 16:53:31
Views:601
Hits:66

Download Torrent

Ratings:Not Yet Rated (Log in to rate it)


Tracker:
udp://tracker.coppersurfer.tk:6969/announce


File List: 


Comments

No comments still posted

Powered by 10 Hamsters v2-svn -|- Page Generated In 0.128635 secs.
-|- RSS FEED
Theme By: Nikkbu