[Login] or [Signup]
Login
Username:
Password:
[Signup]
[Recover Account]


Poll


You must be logged in to view polls



Torrent Details For "Guptodhoner Sondhane (2018) Bengali Movie - 1CD - HDRip[x264 - AAC3(5.1Ch)]"

Guptodhoner Sondhane (2018) Bengali Movie - 1CD - HDRip[x264 - AAC3(5.1Ch)]

Download this torrent | Magnet Download
Health:
Seeds: 0
Leechers: 8
Completed:
Last Checked: 11-11-2018 23:04:45
External Torrent
Update Stats
Download Magnet


Poster


iMDB
Imdb Picture Title: Guptodhoner Sondhane
Year: 2018
Votes: 49
Rating: 7.6/10
Language: Bengali
Country: India
All Genres: Adventure
Plot Outline: Drawing heavily from Satyajit Ray's Feluda stories and the adventures of Indiana Jones, Dhrubo Banerjee's new treasure hunt adventure flick has all the ingredients required to become a crowd pleaser, which it is. Banerjee knows his audience's psyche like the back of his hand, and he plays on their likes and dislikes, taking them along on a rollercoaster ride that makes no pretence of being intelligent and is pure unabashed fun instead. Banerjee's protagonist is a half-Feluda-half-Indiana-Jones like character named Subarna Sen (fondly referred to as Sona Da) who is a professor of History at Oxford University. When he returns to India, Sona Da meets Abir, his nephew. Abir takes Sona Da to their ancestral home in the village of Manikantapur, where Abir's eccentric but erudite maternal uncle (Goutam Ghose, in a lovely little cameo) has recently passed away under mysterious circumstances. When they reach the village, Sona Da and Abir learn of a rural lore that talks about a 350-year-old ...


Director: Dhrubo Banerjee

Music: Bickram Ghosh
Cast:
Sibaji Bandyopadhyay as Priest Ramkrishna
Arjun Chakraborty as Abir
Abir Chatterjee as Prof. Subarna Sen
Rajatabha Dutta as Dashanan Dawn
Goutam Ghose as
Kamaleswar Mukherjee as Mama
Ishaa Saha as Jhinuk
Arindam Sil as


Watch-Free-HD     Download

Details
Name:Guptodhoner Sondhane (2018) Bengali Movie - 1CD - HDRip[x264 - AAC3(5.1Ch)]
Description:
Guptodhoner Sondhane (2018) Bengali Movie -
1CD - HDRip[x264 - AAC3(5.1Ch)]
 





General
Format                                   : Matroska
Format version                           : Version 4
File size                                : 699 MiB
Duration                                 : 2 h 32 min

Video
ID                                       : 1
Format                                   : AVC
Format/Info                              : Advanced Video Codec
Format profile                           : [email protected]
Format settings                          : CABAC / 4 Ref Frames
Format settings, CABAC                   : Yes
Format settings, RefFrames               : 4 frames
Codec ID                                 : V_MPEG4/ISO/AVC
Duration                                 : 2 h 32 min
Bit rate                                 : 512 kb/s
Width                                    : 640 pixels
Height                                   : 272 pixels
Display aspect ratio                     : 2.35:1
Frame rate mode                          : Constant
Frame rate                               : 25.000 FPS
Color space                              : YUV
Chroma subsampling                       : 4:2:0
Bit depth                                : 8 bits
Scan type                                : Progressive
Bits/(Pixel*Frame)                       : 0.118
Stream size                              : 558 MiB (80%)

Audio
Commercial name                          : HE-AAC
Format settings                          : Explicit
Codec ID                                 : A_AAC-2
Duration                                 : 2 h 32 min
Bit rate                                 : 128 kb/s
Channel(s)                               : 6 channels
Channel layout                           : C L R Ls Rs LFE
Stream size                              : 139 MiB (20%)


Thumbnail




Category:Movies > Bengali
Lang:Bengali  Bengali
Total Size:699.10 MB
Info Hash:03a315564a920a3a032820506a25782d9f4fcc54
Added By:CyberTron
Date Added:11-09-2018 15:28:22
Views:118
Hits:9

Download Torrent

Ratings:Not Yet Rated (Log in to rate it)

  


Tracker:
udp://tracker.trackerfix.com:80/announce


File List: 


Comments

No comments still posted

Powered by 10 Hamsters v2-svn -|- Page Generated In 0.599207 secs.
-|- RSS FEED
Theme By: Nikkbu