[Login] or [Signup]
Login
Username:
Password:
[Signup]
[Recover Account]


Poll


You must be logged in to view polls



Torrent Details For "Sanam Teri Kasam (2016) Hindi 720p UNTOUCHED WEBHD x264 AC3 ESubs-Sun George"

Sanam Teri Kasam (2016) Hindi 720p UNTOUCHED WEBHD x264 AC3 ESubs-Sun George

Download this torrent | Magnet Download
Health:
Seeds: 0
Leechers: 1
Completed: 263 
Last Checked: 25-10-2018 04:20:28
External Torrent
Update Stats
Download Magnet


Poster


iMDB
Title: Sanam Teri Kasam
Year: 2016
Runtime: 154 minutes
Language: Hindi
All Genres: Drama, Musical, Romance
Director: Radhika Rao
Vinay Sapru
Writing By: Radhika Rao,Vinay Sapru,
Produced By: Meenu Dakalia,Kaleem Khan,Sunil Kumar,Nishith Madiar,Kapil Madnani,Naveen Mathur,Deepak Mukut,Yogiraj Shetty,
Music: Sanjoy Chowdhury
Cast:
Harshvardhan Rane as Inder Parihar
Mawra Hocane as Saraswati 'Saru' Parthasarthy
Vijay Raaz as Mustakeen Bhai
Murli Sharma as Inspector Hari Nikam
Manish Chaudhary as Jayaram
Anurag Sinha as Abhimanyu
Sudesh Berry as Inder's father
Pyomori Mehta as
Shradha Das as Ruby
Rushad Rana as Doctor
Trailers:
Sanam Teri Kasam trailer


Watch-Free-HD     Download

Details
Name:Sanam Teri Kasam (2016) Hindi 720p UNTOUCHED WEBHD x264 AC3 ESubs-Sun George
Description:
Sanam Teri Kasam (2016) Hindi 720p UNTOUCHED WEBHD x264 AC3 ESubs-Sun George



For Direct Links Visit:  Movies.Digitalmaza.Org







===================================================================

General
Format                                   : Matroska
Format version                           : Version 4
File size                                : 1.30 GiB
Duration                                 : 2 h 33 min
Overall bit rate                         : 1 212 kb/s
Movie name : Sanam Teri Kasam (2016) Hindi 720p UNTOUCHED WEBHD x264 AC3 ESubs-Sun George

===================================================================

Video
ID                                       : 1
Format                                   : AVC
Format/Info                              : Advanced Video Codec
Format profile                           : [email protected]
Format settings                          : CABAC / 8 Ref Frames
Format settings, CABAC                   : Yes
Format settings, RefFrames               : 8 frames
Codec ID                                 : V_MPEG4/ISO/AVC
Duration                                 : 2 h 33 min
Bit rate                                 : 1 000 kb/s
Width                                    : 1 280 pixels
Height                                   : 720 pixels
Display aspect ratio                     : 16:9
Frame rate mode                          : Constant
Frame rate                               : 24.000 FPS
Color space                              : YUV
Chroma subsampling                       : 4:2:0
Bit depth                                : 8 bits
Scan type                                : Progressive
Bits/(Pixel*Frame)                       : 0.045
Stream size                              : 1.06 GiB (81%)
Title                                    : Sun George

===================================================================

Audio
ID                                       : 2
Format                                   : AC-3
Format/Info                              : Audio Coding 3
Commercial name                          : Dolby Digital
Codec ID                                 : A_AC3
Duration                                 : 2 h 33 min
Bit rate mode                            : Constant
Bit rate                                 : 224 kb/s
Channel(s)                               : 2 channels
Channel layout                           : L R
Sampling rate                            : 48.0 kHz
Frame rate                               : 31.250 FPS (1536 SPF)
Bit depth                                : 16 bits
Compression mode                         : Lossy
Delay relative to video                  : 21 ms
Stream size                              : 247 MiB (18%)
Title                                    : Sun George
Language                                 : English
Service kind                             : Complete Main
Default                                  : No
Forced                                   : No

===================================================================


Text #1
ID                                       : 3
Format                                   : UTF-8
Codec ID                                 : S_TEXT/UTF8
Codec ID/Info                            : UTF-8 Plain Text
Duration                                 : 2 h 31 min
Bit rate                                 : 39 b/s
Count of elements                        : 1537
Stream size                              : 43.7 KiB (0%)
Title                                    : Sun George
Language                                 : English
Default                                  : Yes
Forced                                   : No










Category:Movies > Bollywood
Lang:Hindi
Total Size:1.32 GB
Info Hash:7bcb9261f902f56a6d6b94919bbbb6e95ce06bc5
Added By:sungeorge
Date Added:11-09-2018 13:34:55
Views:784
Hits:111

Download Torrent

Ratings:Not Yet Rated (Log in to rate it)

  


Tracker:
udp://tracker.openbittorrent.com:80/announce


File List: 



NFO:

Comments

No comments still posted

Powered by 10 Hamsters v2-svn -|- Page Generated In 1.670869 secs.
-|- RSS FEED
Theme By: Nikkbu