[Login] or [Signup]
Login
Username:
Password:
[Signup]
[Recover Account]


Poll


You must be logged in to view polls



Torrent Details For "Game.of.Thrones.S02E02.The.Night.Lands.1080p.BluRay.Hindi.English.x264.AAC.-.Hon3yHD"

Game.of.Thrones.S02E02.The.Night.Lands.1080p.BluRay.Hindi.English.x264.AAC.-.Hon3yHD

Download this torrent | Magnet Download
Health:
Seeds: 0
Leechers: 39
Completed: 330 
Last Checked: 09-10-2018 15:18:26
External Torrent
Update Stats
Download Magnet


Poster
No poster


Watch-Free-HD     Download

Details
Name:Game.of.Thrones.S02E02.The.Night.Lands.1080p.BluRay.Hindi.English.x264.AAC.-.Hon3yHD
Description:
center]



       

Format                                   : Matroska
Format version                           : Version 4 / Version 2
File size                                : 1.16 GiB
Duration                                 : 53 min 29 s
Overall bit rate                         : 3 099 kb/s
Movie name                               : Game.of.Thrones.S02E02.The.Night.Lands.1080p.BluRay.Hindi.English.x264.AAC.-.Hon3yHD

Video
ID                                       : 1
Format                                   : AVC
Format/Info                              : Advanced Video Codec
Format profile                           : [email protected]
Format settings                          : CABAC / 4 Ref Frames
Format settings, CABAC                   : Yes
Format settings, RefFrames               : 4 frames
Codec ID                                 : V_MPEG4/ISO/AVC
Duration                                 : 53 min 29 s
Bit rate                                 : 2 500 kb/s
Width                                    : 1 920 pixels
Height                                   : 1 080 pixels
Display aspect ratio                     : 16:9
Frame rate mode                          : Constant
Frame rate                               : 23.976 (24000/1001) FPS

Audio #1
ID                                       : 2
Format                                   : AAC
Format/Info                              : Advanced Audio Codec
Format profile                           : LC
Codec ID                                 : A_AAC-2
Duration                                 : 53 min 24 s
Bit rate                                 : 320 kb/s
Channel(s)                               : 2 channels
Channel positions                        : Front: L R
Sampling rate                            : 48.0 kHz
Frame rate                               : 46.875 FPS (1024 SPF)
Compression mode                         : Lossy
Delay relative to video                  : 9 ms
Stream size                              : 122 MiB (10%)
Title                                    : Hon3yHD.to
Language                                 : Hindi

Audio #2
ID                                       : 3
Format                                   : AAC
Format/Info                              : Advanced Audio Codec
Format profile                           : LC
Codec ID                                 : A_AAC-2
Duration                                 : 53 min 29 s
Bit rate                                 : 329 kb/s
Channel(s)                               : 6 channels
Channel positions                        : Front: L C R, Side: L R, LFE
Sampling rate                            : 48.0 kHz
Frame rate                               : 46.875 FPS (1024 SPF)
Compression mode                         : Lossy
Delay relative to video                  : 9 ms
Stream size                              : 126 MiB (11%)
Title                                    : Hon3yHD.to
Language                                 : English

Text #1
ID                                       : 4
Format                                   : UTF-8
Codec ID                                 : S_TEXT/UTF8
Codec ID/Info                            : UTF-8 Plain Text
Duration                                 : 35 s 617 ms
Bit rate                                 : 61 b/s
Count of elements                        : 9
Stream size                              : 275 Bytes (0%)
Title                                    : Hon3yHD.to
Language                                 : English


For more Exclusive & Quality Stuff Visit :: Hon3yHD

 [/center]
Category:TV > Indian
Lang:Hindi
Total Size:1.18 GB
Info Hash:853f14ded8ff493405d3c13bbe5df7b66641d303
Added By:Hon3y
Date Added:11-09-2018 11:52:21
Views:259
Hits:26

Download Torrent

Ratings:Not Yet Rated (Log in to rate it)


Tracker:
udp://tracker.coppersurfer.tk:6969/announce


File List: 


Comments

No comments still posted

Powered by 10 Hamsters v2-svn -|- Page Generated In 0.521910 secs.
-|- RSS FEED
Theme By: Nikkbu