[Login] or [Signup]
Login
Username:
Password:
[Signup]
[Recover Account]


Poll


You must be logged in to view polls



Torrent Details For "Fidaa (2018) Bengali Movie - HDRip[x264 - AAC3(5.1Ch)] - 850 MB "

Fidaa (2018) Bengali Movie - HDRip[x264 - AAC3(5.1Ch)] - 850 MB

Download this torrent | Magnet Download
Health:
Seeds: 0
Leechers: 1
Completed:
Last Checked: 08-11-2018 07:37:38
External Torrent
Update Stats
Download Magnet


Poster


iMDB
Title: Fidaa
Year: 2018
Language: Bengali
All Genres: Drama
Director: Pathikrit Basu

Cast:
Sanjana Banerjee as
Yash Dasgupta as Ishaan
Matt Townsend as Police Officer #1


Watch-Free-HD     Download

Details
Name:Fidaa (2018) Bengali Movie - HDRip[x264 - AAC3(5.1Ch)] - 850 MB
Description:
      Fidaa (2018) Bengali Movie - HDRip
[x264 - AAC3(5.1Ch)] - 850 MB    
 






General
Format                                   : Matroska
Format version                           : Version 4
File size                                : 849 MiB
Duration                                 : 2 h 47 min

Video
ID                                       : 1
Format                                   : AVC
Format/Info                              : Advanced Video Codec
Format profile                           : [email protected]
Format settings                          : CABAC / 4 Ref Frames
Format settings, CABAC                   : Yes
Format settings, RefFrames               : 4 frames
Codec ID                                 : V_MPEG4/ISO/AVC
Duration                                 : 2 h 47 min
Bit rate                                 : 578 kb/s
Width                                    : 640 pixels
Height                                   : 272 pixels
Display aspect ratio                     : 2.35:1
Frame rate mode                          : Constant
Frame rate                               : 25.000 FPS
Color space                              : YUV
Chroma subsampling                       : 4:2:0
Bit depth                                : 8 bits
Scan type                                : Progressive
Bits/(Pixel*Frame)                       : 0.133
Stream size                              : 693 MiB (82%)

Audio
ID                                       : 2
Format                                   : AAC LC SBR
Commercial name                          : HE-AAC
Format settings                          : Explicit
Codec ID                                 : A_AAC-2
Duration                                 : 2 h 47 min
Bit rate                                 : 128 kb/s
Channel(s)                               : 6 channels
Channel layout                           : C L R Ls Rs LFE
Sampling rate                            : 48.0 kHz
Stream size                              : 153 MiB (18%)















Category:Movies > Bengali
Lang:Bengali  Bengali
Total Size:849.04 MB
Info Hash:f396c9d27155b3780046dce43f047c4ea28e7a41
Added By:CyberTron
Date Added:10-09-2018 18:04:34
Views:186
Hits:165

Download Torrent

Ratings:Not Yet Rated (Log in to rate it)

  


Tracker:
udp://tracker.trackerfix.com:80/announce


File List: 


Comments

No comments still posted

Powered by 10 Hamsters v2-svn -|- Page Generated In 1.953608 secs.
-|- RSS FEED
Theme By: Nikkbu