[Login] or [Signup]
Login
Username:
Password:
[Signup]
[Recover Account]


Poll


You must be logged in to view polls



Torrent Details For "Evil.Dead.2013.BluRay.(400mb).x264.{Dual.Audio}.[Hindi.Org-English].-.Hon3yHD"

Evil.Dead.2013.BluRay.(400mb).x264.{Dual.Audio}.[Hindi.Org-English].-.Hon3yHD

Download this torrent | Magnet Download
Health:
Seeds: 0
Leechers: 12
Completed: 394 
Last Checked: 18-09-2018 17:24:54
External Torrent
Update Stats
Download Magnet


Poster
No poster


Watch-Free-HD     Download

Details
Name:Evil.Dead.2013.BluRay.(400mb).x264.{Dual.Audio}.[Hindi.Org-English].-.Hon3yHD
Description:



 http://www.imdb.com/title/tt1288558/

Format                      : Matroska
Format version              : Version 4 / Version 2
File size                   : 400 MiB
Duration                    : 1 h 31 min
Overall bit rate            : 612 kb/s
Movie name                  : ~Hammer~

Video
ID                          : 1
Format                      : AVC
Format/Info                 : Advanced Video Codec
Format profile              : [email protected]
Format settings             : CABAC / 16 Ref Frames
Format settings, CABAC      : Yes
Format settings, ReFrames   : 16 frames
Codec ID                    : V_MPEG4/ISO/AVC
Duration                    : 1 h 31 min
Bit rate                    : 481 kb/s
Width                       : 640 pixels
Height                      : 276 pixels
Display aspect ratio        : 2.35:1
Frame rate mode             : Constant
Frame rate                  : 23.976 (24000/1001) FPS

Audio #1
ID                          : 2
Format                      : AAC
Format/Info                 : Advanced Audio Codec
Format profile              : LC
Codec ID                    : A_AAC-2
Duration                    : 1 h 31 min
Bit rate                    : 64.3 kb/s
Channel(s)                  : 2 channels
Channel positions           : Front: L R
Sampling rate               : 48.0 kHz
Frame rate                  : 46.875 FPS (1024 SPF)
Compression mode            : Lossy
Delay relative to video     : -21 ms
Stream size                 : 42.0 MiB (11%)
Title                       : Stereo
Language                    : Hindi

Audio #2
ID                          : 3
Format                      : AAC
Format/Info                 : Advanced Audio Codec
Format profile              : LC
Codec ID                    : A_AAC-2
Duration                    : 1 h 31 min
Bit rate                    : 64.2 kb/s
Channel(s)                  : 2 channels
Channel positions           : Front: L R
Sampling rate               : 48.0 kHz
Frame rate                  : 46.875 FPS (1024 SPF)
Compression mode            : Lossy
Delay relative to video     : -21 ms
Stream size                 : 42.0 MiB (10%)
Title                       : Stereo
Language                    : English


 http://hon3yhd.net

 
Category:Movies > Hollywood Dub
Lang:Hindi
Total Size:399.80 MB
Info Hash:84fd0c13840d5ba055a3f43bea33eb34d73aa199
Added By:Unknown
Date Added:05-09-2018 18:24:00
Views:325
Hits:47

Download Torrent

Ratings:Not Yet Rated (Log in to rate it)


Tracker:
udp://tracker.coppersurfer.tk:6969/announce


File List: 


Comments

No comments still posted

Powered by 10 Hamsters v2-svn -|- Page Generated In 0.266884 secs.
-|- RSS FEED
Theme By: Nikkbu