[Login] or [Signup]
Login
Username:
Password:
[Signup]
[Recover Account]


Poll


You must be logged in to view polls



Torrent Details For " Ami Aar Amar Girlfriends (Bengali Movie) - 2CD - HDRip[x264 - AC3(5.1Ch)]"

Ami Aar Amar Girlfriends (Bengali Movie) - 2CD - HDRip[x264 - AC3(5.1Ch)]

Download this torrent | Magnet Download
Health:
Seeds: 0
Leechers: 0
Completed:
Last Checked: 10-11-2018 17:57:28
External Torrent
Update Stats
Download Magnet


Poster


iMDB
Original Title: Ami Aar Amar Girlfriends
Title: Me and My Girlfriends
Year: 2013
Language: Bengali, English
All Genres: Comedy, Drama
Director: Mainak Bhaumik
Writing By: Mainak Bhaumik,
Produced By: Anirban Aditya,Roshni Sen,Satrajit Sen,
Music: Neel Dutt
Cast:
Swastika Mukherjee as Shree
Raima Sen as Preenita
Parno Mittra as Rhea
Sujan Mukherjee as
Anubrata Basu as
Biswanath Basu as
Vikram Chatterjee as
Anushua Majumdar as
Barun Chanda as
Deboprasad Halder as


Watch-Free-HD     Download

Details
Name: Ami Aar Amar Girlfriends (Bengali Movie) - 2CD - HDRip[x264 - AC3(5.1Ch)]
Description:
     Ami Aar Amar Girlfriends  (Bengali Movie)  -
2CD - HDRip[x264 - AC3(5.1Ch)]    
 





Format                                   : Matroska
Format version                           : Version 4 / Version 2
File size                                : 1.40 GiB
Duration                                 : 2 h 21 min

Video
ID                                       : 1
Format                                   : AVC
Format/Info                              : Advanced Video Codec
Format profile                           : [email protected]
Format settings                          : CABAC / 4 Ref Frames
Format settings, CABAC                   : Yes
Format settings, RefFrames               : 4 frames
Codec ID                                 : V_MPEG4/ISO/AVC
Duration                                 : 2 h 21 min
Bit rate                                 : 1 224 kb/s
Width                                    : 720 pixels
Height                                   : 304 pixels
Display aspect ratio                     : 2.35:1
Frame rate mode                          : Constant
Frame rate                               : 25.000 FPS
Color space                              : YUV
Chroma subsampling                       : 4:2:0
Bit depth                                : 8 bits
Scan type                                : Progressive
Bits/(Pixel*Frame)                       : 0.224
Stream size                              : 1.21 GiB (86%)

Audio
ID                                       : 2
Format                                   : AC-3
Format/Info                              : Audio Coding 3
Codec ID                                 : A_AC3
Duration                                 : 2 h 21 min
Bit rate mode                            : Constant
Bit rate                                 : 192 kb/s
Channel(s)                               : 6 channels
Channel positions                        : Front: L C R, Side: L R, LFE
Sampling rate                            : 48.0 kHz
Stream size                              : 194 MiB (14%)


Thumbnail




Category:Movies > Bengali
Lang:Bengali  Bengali
Total Size:1.40 GB
Info Hash:b528f9d5fd466db972889a0ee947b3437ef75721
Added By:CyberTron
Date Added:30-08-2018 21:43:39
Views:262
Hits:32

Download Torrent

Ratings:Not Yet Rated (Log in to rate it)

  


Tracker:
udp://tracker.trackerfix.com:80/announce


File List: 


Comments

No comments still posted

Powered by 10 Hamsters v2-svn -|- Page Generated In 1.003939 secs.
-|- RSS FEED
Theme By: Nikkbu