[Login] or [Signup]
Login
Username:
Password:
[Signup]
[Recover Account]


Poll


You must be logged in to view polls



Torrent Details For "Unforgiven 1992 REMASTERED 1080p Bluray DD 5.1 [email protected]!"

Unforgiven 1992 REMASTERED 1080p Bluray DD 5.1 [email protected]!

Download this torrent | Magnet Download
Health:
Seeds: 0
Leechers: 2
Completed:
Last Checked: 18-11-2018 14:40:34
External Torrent
Update Stats
Download Magnet


Poster
No poster


iMDB
Imdb Picture Title: Unforgiven
Year: 1992
Runtime: 131 minutes
Votes: 298477
Rating: 8.2/10
Language: English
Country: USA
All Genres: Drama, Western
Plot Outline: Retired Old West gunslinger William Munny reluctantly takes on one last job, with the help of his old partner and a young man.
Tagline: It's a hell of a thing, killing a man
Director: Clint Eastwood
Writing By: David Webb Peoples,
Produced By: Clint Eastwood,Julian Ludwig,David Valdes,
Music: Lennie Niehaus
Plot:

The town of Big Whisky is full of normal people trying to lead quiet lives. Cowboys try to make a living. Sheriff 'Little Bill' tries to build a house and keep a heavy-handed order. The town whores just try to get by.Then a couple of cowboys cut up a whore. Dissatisfied with Bill's justice, the prostitutes put a bounty on the cowboys. The bounty attracts a young gun billing himself as 'The Schofield Kid', and aging killer William Munny. Munny reformed for his young wife, and has been raising crops and two children in peace. But his wife is gone. Farm life is hard. And Munny is no good at it. So he calls his old partner Ned, saddles his ornery nag, and rides off to kill one more time, blurring the lines between heroism and villainy, man and myth.

- Written by Charlie Ness

Retired Old West gunslinger William Munny reluctantly takes on one last job, with the help of his old partner and a young man.

- Written by Jon Reeves <[email protected]>
Cast:
Clint Eastwood as Bill Munny
Gene Hackman as Little Bill Daggett
Morgan Freeman as Ned Logan
Richard Harris as English Bob
Jaimz Woolvett as The 'Schofield Kid'
Saul Rubinek as W.W. Beauchamp
Frances Fisher as Strawberry Alice
Anna Levine as Delilah Fitzgerald
David Mucci as Quick Mike
Rob Campbell as Davey Bunting


Watch-Free-HD     Download

Details
Name:Unforgiven 1992 REMASTERED 1080p Bluray DD 5.1 [email protected]!
Description:
 

Unforgiven 1992 REMASTERED 1080p Bluray DD 5.1 [email protected]!

Video
ID                                       : 1
Format                                   : AVC
Format/Info                              : Advanced Video Codec
Format profile                           : [email protected]
Format settings, CABAC                   : Yes
Format settings, ReFrames                : 4 frames
Codec ID                                 : V_MPEG4/ISO/AVC
Duration                                 : 2 h 10 min
Bit rate                                 : 5 000 kb/s
Width                                    : 1 920 pixels
Height                                   : 800 pixels
Display aspect ratio                     : 2.40:1
Frame rate mode                          : Constant
Frame rate                               : 23.976 (24000/1001) FPS
Color space                              : YUV
Chroma subsampling                       : 4:2:0
Bit depth                                : 8 bits
Scan type                                : Progressive
Bits/(Pixel*Frame)                       : 0.136
Stream size                              : 4.56 GiB (88%)
Writing library                          : x264 core 142 r2431 ac76440
Language                                 : English
Default                                  : Yes
Forced                                   : No

Audio
ID                                       : 2
Format                                   : AC-3
Format/Info                              : Audio Coding 3
Format settings, Endianness              : Big
Codec ID                                 : A_AC3
Duration                                 : 2 h 10 min
Bit rate mode                            : Constant
Bit rate                                 : 640 kb/s
Channel(s)                               : 6 channels
Channel positions                        : Front: L C R, Side: L R, LFE
Sampling rate                            : 48.0 kHz
Frame rate                               : 31.250 FPS (1536 spf)
Bit depth                                : 16 bits
Compression mode                         : Lossy
Stream size                              : 598 MiB (11%)
Language                                 : English
Service kind                             : Complete Main
Default                                  : Yes
Forced                                   : No

Text
ID                                       : 3
Format                                   : PGS
Muxing mode                              : zlib
Codec ID                                 : S_HDMV/PGS
Codec ID/Info                            : Picture based subtitle format used on BDs/HD-DVDs
Duration                                 : 2 h 9 min
Bit rate                                 : 11.9 kb/s
Count of elements                        : 2850
Stream size                              : 11.0 MiB (0%)
Language                                 : English
Default                                  : Yes
Forced                                   : No

                     
Category:Movies > 1080P Bluray
Lang:English  English
Total Size:5.16 GB
Info Hash:1333461421126c1281119200979174cea432cee2
Added By:Sup2425
Date Added:28-06-2017 10:21:08
Views:142
Hits:29

Download Torrent

Ratings:Not Yet Rated (Log in to rate it)


Tracker:
udp://inferno.demonoid.pw:3391/announce


File List: 


Comments

No comments still posted

Powered by 10 Hamsters v2-svn -|- Page Generated In 1.793863 secs.
-|- RSS FEED
Theme By: Nikkbu