[Login] or [Signup]
Login
Username:
Password:
[Signup]
[Recover Account]


Poll


You must be logged in to view polls



Torrent Details For "The Adventures of Gogol (2018 - Complete Season) - 1CD - Bengali Web Series Rip[x264 - AAC3(5.1..."

The Adventures of Gogol (2018 - Complete Season) - 1CD - Bengali Web Series Rip[x264 - AAC3(5.1...

Download this torrent | Magnet Download
Health:
Seeds: 0
Leechers: 3
Completed:
Last Checked: 22-10-2018 20:21:48
External Torrent
Update Stats
Download Magnet


Poster


Watch-Free-HD     Download

Details
Name:The Adventures of Gogol (2018 - Complete Season) - 1CD - Bengali Web Series Rip[x264 - AAC3(5.1...
Description:
   The Adventures of Gogol (2018 - Complete Season) -
1CD - Bengali Web Series Rip[x264 - AAC3(5.1Ch)]  
 





General
Format version                           : Version 4 / Version 2
File size                                : 700 MiB
Duration                                 : 1 h 16 min

Video
ID                                       : 1
Format                                   : AVC
Format/Info                              : Advanced Video Codec
Format profile                           : [email protected]
Format settings                          : CABAC / 4 Ref Frames
Format settings, CABAC                   : Yes
Format settings, RefFrames               : 4 frames
Codec ID                                 : V_MPEG4/ISO/AVC
Duration                                 : 1 h 16 min
Bit rate                                 : 1 156 kb/s
Width                                    : 720 pixels
Height                                   : 392 pixels
Display aspect ratio                     : 1.85:1
Frame rate mode                          : Constant
Frame rate                               : 25.000 FPS
Color space                              : YUV
Chroma subsampling                       : 4:2:0
Bit depth                                : 8 bits
Scan type                                : Progressive
Bits/(Pixel*Frame)                       : 0.164
Stream size                              : 630 MiB (90%)

Audio
ID                                       : 2
Format                                   : AAC
Format/Info                              : Advanced Audio Codec
Format profile                           : HE-AAC / LC
Format settings                          : Explicit
Codec ID                                 : A_AAC-2
Duration                                 : 1 h 16 min
Bit rate                                 : 128 kb/s
Channel(s)                               : 6 channels
Channel positions                        : Front: L C R, Side: L R, LFE
Sampling rate                            : 48.0 kHz
Stream size                              : 69.6 MiB (10%)

Thumbnail




Category:Movies > Bengali
Lang:Bengali  Bengali
Total Size:700.51 MB
Info Hash:8b5572d54fba3a7526aa9228f7edb04ed6935884
Added By:CyberTron
Date Added:28-08-2018 06:05:46
Views:458
Hits:47

Download Torrent

Ratings:Not Yet Rated (Log in to rate it)

  


Tracker:
udp://tracker.trackerfix.com:80/announce


File List: 


Comments

No comments still posted

Powered by 10 Hamsters v2-svn -|- Page Generated In 0.659925 secs.
-|- RSS FEED
Theme By: Nikkbu