[Login] or [Signup]
Login
Username:
Password:
[Signup]
[Recover Account]


Poll


You must be logged in to view polls



Torrent Details For "Thuppakki 2012 Hindi Dubbed 720p WEB-DL x264 AAC Esub { TaRa }.mkv"

Thuppakki 2012 Hindi Dubbed 720p WEB-DL x264 AAC Esub { TaRa }.mkv

Download this torrent | Magnet Download
Health:
Seeds: 0
Leechers: 8
Completed: 1,099 
Last Checked: 22-10-2018 07:04:28
External Torrent
Update Stats
Download Magnet


Poster


iMDB
Original Title: Thuppakki
Title: Thuppakki - Le Pistolet
Year: 2012
Runtime: 165 minutes
Language: Tamil, Telugu, Hindi
All Genres: Action, Thriller
Tagline: I'm waiting
Director: A.R. Murugadoss
Writing By: A.R. Murugadoss,A.R. Murugadoss,A.R. Murugadoss,
Produced By: Jairaj Parayan,Manish Shah,Kalaippuli S. Thanu,
Music: Harris Jayaraj
Cast:
Joseph Vijay as Jagadish Dhanapal
Kajal Aggarwal as Nisha
Vidyut Jammwal as Sleeper cell's leader
Sathyan as Balaji
Zakir Hussain as
Deepthi Nambiar as Jagdeesh's sister
Sanjana Sarathy as Jagdeesh's sister
Steven Clarke as Dancer
A.R. Murugadoss as Cameo Appearance
Santosh Sivan as Cameo Appearance
Trailers:
Thuppakki


Watch-Free-HD     Download

Details
Name:Thuppakki 2012 Hindi Dubbed 720p WEB-DL x264 AAC Esub { TaRa }.mkv
Description:

Thuppakki 2012 Hindi Dubbed 720p WEB-DL x264 AAC Esub { TaRa }.mkv
 

===================================================================
General
Complete name               : Thuppakki 2012 Hindi Dubbed 720p WEB-DL x264 AAC Esub { TaRa }.mkv
Format                      : Matroska
Format version              : Version 4 / Version 2
File size                   : 1 021 MiB
Duration                    : 2h 49mn
Overall bit rate            : 840 Kbps
===================================================================
Video
ID                          : 1
Format                      : AVC
Format/Info                 : Advanced Video Codec
Format profile              : High [email protected]
Format settings, CABAC      : Yes
Format settings, ReFrames   : 5 frames
Codec ID                    : V_MPEG4/ISO/AVC
Duration                    : 2h 49mn
Bit rate                    : 689 Kbps
Width                       : 1 280 pixels
Height                      : 544 pixels
Display aspect ratio        : 2.35:1
Frame rate mode             : Constant
Frame rate                  : 23.976 (24000/1001) fps
Color space                 : YUV
Chroma subsampling          : 4:2:0
Bit depth                   : 10 bits
Scan type                   : Progressive
Bits/(Pixel*Frame)          : 0.041
Stream size                 : 836 MiB (82%)
Title                       : .....::::: TaRa :::::.....
Language                    : Hindi
Default                     : Yes
Forced                      : No
===================================================================
Audio
ID                          : 2
Format                      : AAC
Format/Info                 : Advanced Audio Codec
Format profile              : LC
Codec ID                    : A_AAC
Duration                    : 2h 49mn
Bit rate                    : 150 Kbps
Channel(s)                  : 2 channels
Channel positions           : Front: L R
Sampling rate               : 44.1 KHz
Frame rate                  : 43.066 fps (1024 spf)
Compression mode            : Lossy
Stream size                 : 182 MiB (18%)
Title                       : .....::::: TaRa :::::.....
Language                    : Hindi
Default                     : Yes
Forced                      : No
===================================================================
Text
ID                          : 3
Format                      : UTF-8
Codec ID                    : S_TEXT/UTF8
Codec ID/Info               : UTF-8 Plain Text
Duration                    : 2h 47mn
Bit rate                    : 47 bps
Count of elements           : 1543
Stream size                 : 58.4 KiB (0%)
Title                       : .....::::: TaRa :::::.....
Language                    : English
Default                     : Yes
Forced                      : No
===================================================================


 
 
 
 
 
 
 
 
 
 
 
 
 
 
 
 
 
 
 
 












 



Category:Movies > South Dub
Lang:Hindi
Total Size:1,021.12 MB
Info Hash:78fd87cc806644915f353ecb01251ea2c5f3ed25
Added By:SkTaRa
Date Added:23-08-2018 17:44:48
Views:1,447
Hits:144

Download Torrent

Ratings:Not Yet Rated (Log in to rate it)

  


Tracker:
udp://tracker.coppersurfer.tk:6969/announce


File List: 


Comments

No comments still posted

Powered by 10 Hamsters v2-svn -|- Page Generated In 4.314231 secs.
-|- RSS FEED
Theme By: Nikkbu