[Login] or [Signup]
Login
Username:
Password:
[Signup]
[Recover Account]


Poll


You must be logged in to view polls



Torrent Details For "+18 Rock of Ages 2012 x264 720p Esub BluRay Dual Audio English Hindi GOPISAHI"

+18 Rock of Ages 2012 x264 720p Esub BluRay Dual Audio English Hindi GOPISAHI

Download this torrent | Magnet Download
Health:
Seeds: 0
Leechers: 88
Completed:
Last Checked: 26-08-2018 16:09:17
External Torrent
Update Stats
Download Magnet


Poster
No poster


Watch-Free-HD     Download

Details
Name:+18 Rock of Ages 2012 x264 720p Esub BluRay Dual Audio English Hindi GOPISAHI
Description:
 http://www.gopisahi.pw/

Format                         : Matroska

Format version                 : Version 4 / Version 2

File size                      : 941 MiB

Duration                       : 2 h 16 min

Overall bit rate               : 964 kb/s

Movie name                     : Rock of Ages 2012 GOPISAHI


Video

Format                         : AVC

Format/Info                    : Advanced Video Codec

Codec ID                       : V_MPEG4/ISO/AVC

Duration                       : 2 h 16 min

Bit rate                       : 774 kb/s

Width                          : 1 264 pixels

Height                         : 528 pixels

Display aspect ratio           : 2.40:1

Frame rate mode                : Constant

Frame rate                     : 23.976 (24000/1001) FPS

Color space                    : YUV

Chroma subsampling             : 4:2:0

Bit depth                      : 8 bits

Scan type                      : Progressive

Bits/(Pixel*Frame)             : 0.048

Stream size                    : 754 MiB (80%)

Title                          : GOPISAHI

Writing library                : x264 core 125 r2200 999b753


Audio #1

Format                         : AAC

Format/Info                    : Advanced Audio Codec

Duration                       : 2 h 10 min

Bit rate                       : 96.0 kb/s

Channel(s)                     : 2 channels

Channel positions              : Front: L R

Sampling rate                  : 48.0 kHz

Frame rate                     : 46.875 FPS (1024 SPF)

Compression mode               : Lossy

Delay relative to video        : -71 ms

Stream size                    : 90.0 MiB (10%)

Title                          : GOPISAHI

Language                       : Hindi


Audio #2

Format                         : AAC

Format/Info                    : Advanced Audio Codec

Duration                       : 2 h 16 min

Bit rate                       : 96.0 kb/s

Channel(s)                     : 2 channels

Channel positions              : Front: L R

Sampling rate                  : 48.0 kHz

Frame rate                     : 46.875 FPS (1024 SPF)

Compression mode               : Lossy

Delay relative to video        : -125 ms

Stream size                    : 93.5 MiB (10%)

Title                          : GOPISAHI

Language                       : English


Text

Language                       : English


Category:Movies > Hollywood Dub
Lang:Hindi
Total Size:679.04 MB
Info Hash:ce6c79447b97b6c53af8b11196ec9da0dca49a51
Added By:gopisahi
Date Added:23-08-2018 02:49:06
Views:1,898
Hits:247

Download Torrent

Ratings:Not Yet Rated (Log in to rate it)


Tracker:
udp://tracker.torrent.eu.org:451/announce

This Torrent also has backup trackers
URLSeedersLeechersCompleted
http://retracker.spb.ru:80/announce060
http://t.nyaatracker.com:80/announce010
http://retracker.mgts.by:80/announce070
http://tracker2.itzmx.com:6961/announce000


File List: 


Comments

No comments still posted

Powered by 10 Hamsters v2-svn -|- Page Generated In 1.317089 secs.
-|- RSS FEED
Theme By: Nikkbu