[Login] or [Signup]
Login
Username:
Password:
[Signup]
[Recover Account]


Poll


You must be logged in to view polls



Torrent Details For "Na.Maloom.Afraad.2.(2017).WEBHD.1080p.Urdu.H264.AAC.-.LatestHDMovies.Exclusive"

Na.Maloom.Afraad.2.(2017).WEBHD.1080p.Urdu.H264.AAC.-.LatestHDMovies.Exclusive

Download this torrent | Magnet Download
Health:
Seeds: 0
Leechers: 2
Completed: 2,349 
Last Checked: 22-09-2018 23:23:55
External Torrent
Update Stats
Download Magnet


Poster


iMDB
Imdb Picture Title: Na Maloom Afraad 2
Year: 2017
Runtime: 118 minutes
Votes: 556
Rating: 7.5/10
Language: Urdu
Country: Pakistan
All Genres: Comedy, Crime, Thriller
Plot Outline: This is a sequel to 2014 comedy "Na Maloom Afrad" ("Unknown men"). Three unfortunate souls plan a big heist on their shortcut to wealth but things go comically wrong along the way.


Director: Nabeel Qureshi
Writing By: Fizza Ali Meerza,Nabeel Qureshi,
Produced By: Mehdi Ali,Fizza Ali Meerza,
Music: Shani Arshad
Cast:
Hania Aamir as Pari
Ashiq Ahmed as
Nayyar Ejaz as Sheikh Sultan Al Baklawa
Mohsin Abbas Haider as Moon
Urwa Hocane as Naina
Nazar Hussain as
Sohail Javed as
Sadaf Kanwal as Dancer
Marina Khan as
Saleem Mairaj as Iqbal


Watch-Free-HD     Download

Details
Name:Na.Maloom.Afraad.2.(2017).WEBHD.1080p.Urdu.H264.AAC.-.LatestHDMovies.Exclusive
Description:
[center][b]



visit Now - http://LatestHDMovies.Org




 



General
Unique ID                   : 41420964896958712459984018081306162463 (0x1F29633DD1E3C3BE16C44429081CB51F)
Complete name               : C:\Users\latest\Downloads\Video\Na.Maloom.Afraad.2.(2017).WEBHD.1080p.Urdu.H264.AAC.-.LatestHDMovies.Exclusive.mkv
Format                      : Matroska
Format version              : Version 4 / Version 2
File size                   : 1.45 GiB
Duration                    : 1 h 59 min
Overall bit rate            : 1 738 kb/s
Movie name                  : http://LatestHDMovies.Org
Encoded date                : UTC 2018-08-22 20:58:59
Writing application         : mkvmerge v25.0.0 ('Prog Noir') 32-bit
Writing library             : libebml v1.3.6 + libmatroska v1.4.9
Cover                       : Yes
Attachments                 : Cover.jpg

Video
ID                          : 1
Format                      : AVC
Format/Info                 : Advanced Video Codec
Format profile              : [email protected]
Format settings             : CABAC / 3 Ref Frames
Format settings, CABAC      : Yes
Format settings, ReFrames   : 3 frames
Codec ID                    : V_MPEG4/ISO/AVC
Duration                    : 1 h 59 min
Bit rate                    : 1 610 kb/s
Width                       : 1 920 pixels
Height                      : 1 080 pixels
Display aspect ratio        : 16:9
Frame rate mode             : Constant
Frame rate                  : 24.000 FPS
Color space                 : YUV
Chroma subsampling          : 4:2:0
Bit depth                   : 8 bits
Scan type                   : Progressive
Bits/(Pixel*Frame)          : 0.032
Stream size                 : 1.34 GiB (93%)
Title                       : http://LatestHDMovies.Org
Default                     : Yes
Forced                      : No
Color range                 : Limited
Color primaries             : BT.709
Transfer characteristics    : BT.709
Matrix coefficients         : BT.709

Audio
ID                          : 2
Format                      : AAC
Format/Info                 : Advanced Audio Codec
Format profile              : LC
Codec ID                    : A_AAC-2
Duration                    : 1 h 59 min
Bit rate                    : 126 kb/s
Channel(s)                  : 2 channels
Channel positions           : Front: L R
Sampling rate               : 44.1 kHz
Frame rate                  : 43.066 FPS (1024 SPF)
Compression mode            : Lossy
Delay relative to video     : 85 ms
Stream size                 : 107 MiB (7%)
Title                       : http://LatestHDMovies.Org
Language                    : Urdu
Default                     : Yes
Forced                      : No


 
 
 
 
 
 
Category:Movies > Pakistani
Lang:Urdu
Total Size:1.45 GB
Info Hash:6e08213ac89633a77d1482f625616908a1500702
Added By:LatestHDMovies
Date Added:22-08-2018 22:06:56
Views:361
Hits:70

Download Torrent

Ratings:Not Yet Rated (Log in to rate it)


Tracker:
udp://tracker.coppersurfer.tk:6969/announce


File List: 


Comments

No comments still posted

Powered by 10 Hamsters v2-svn -|- Page Generated In 2.431365 secs.
-|- RSS FEED
Theme By: Nikkbu