[Login] or [Signup]
Login
Username:
Password:
[Signup]
[Recover Account]


Poll


You must be logged in to view polls



Torrent Details For " Kiriti O Kalobhromor (Bengali Movie) - 2CD - DTHRip[Mp4 - AAC3(5.1Ch)] "

Kiriti O Kalobhromor (Bengali Movie) - 2CD - DTHRip[Mp4 - AAC3(5.1Ch)]

Download this torrent | Magnet Download
Health:
Seeds: 0
Leechers: 6
Completed: 100 
Last Checked: 27-10-2018 01:37:34
External Torrent
Update Stats
Download Magnet


Poster


Watch-Free-HD     Download

Details
Name: Kiriti O Kalobhromor (Bengali Movie) - 2CD - DTHRip[Mp4 - AAC3(5.1Ch)]
Description:
 Kiriti O Kalobhromor (Bengali Movie) -
2CD - DTHRip[Mp4 - AAC3(5.1Ch)]  
 





General
Format                                   : MPEG-4
Format profile                           : Base Media
Codec ID                                 : isom (isom)
File size                                : 1.40 GiB
Duration                                 : 2 h 9 min

Video
ID                                       : 1
Format                                   : AVC
Format/Info                              : Advanced Video Codec
Format profile                           : [email protected]
Format settings                          : CABAC / 4 Ref Frames
Format settings, CABAC                   : Yes
Format settings, RefFrames               : 4 frames
Codec ID                                 : avc1
Codec ID/Info                            : Advanced Video Coding
Duration                                 : 2 h 9 min
Bit rate                                 : 1 420 kb/s
Maximum bit rate                         : 6 984 kb/s
Width                                    : 720 pixels
Height                                   : 304 pixels
Display aspect ratio                     : 2.35:1
Frame rate mode                          : Constant
Frame rate                               : 25.000 FPS
Color space                              : YUV
Chroma subsampling                       : 4:2:0
Bit depth                                : 8 bits
Scan type                                : Progressive
Bits/(Pixel*Frame)                       : 0.260
Stream size                              : 1.28 GiB (92%)

Audio
ID                                       : 2
Format                                   : AAC
Format/Info                              : Advanced Audio Codec
Format profile                           : HE-AAC / LC
Format settings                          : Explicit
Codec ID                                 : mp4a-40-2
Duration                                 : 2 h 9 min
Bit rate mode                            : Variable
Bit rate                                 : 128 kb/s
Maximum bit rate                         : 139 kb/s
Channel(s)                               : 6 channels
Channel positions                        : Front: L C R, Side: L R, LFE
Sampling rate                            : 48.0 kHz
Stream size                              : 118 MiB (8%)

Thumbnail





Category:Movies > Bengali
Lang:Bengali  Bengali
Total Size:1.40 GB
Info Hash:6afda134a55054cf9555f5a67addd993a4aaabe5
Added By:CyberTron
Date Added:21-08-2018 15:36:07
Views:389
Hits:103

Download Torrent

Ratings:Not Yet Rated (Log in to rate it)

  


Tracker:
udp://tracker.trackerfix.com:80/announce


File List: 


Comments

No comments still posted

Powered by 10 Hamsters v2-svn -|- Page Generated In 0.648385 secs.
-|- RSS FEED
Theme By: Nikkbu