[Login] or [Signup]
Login
Username:
Password:
[Signup]
[Recover Account]


Poll


You must be logged in to view polls



Torrent Details For "Backpedal 2017 1080p WEB-DL x264 [MW]"

Backpedal 2017 1080p WEB-DL x264 [MW]

Download this torrent | Magnet Download
Health:
Seeds: 0
Leechers: 18
Completed:
Last Checked: 05-11-2018 12:36:15
External Torrent
Update Stats
Download Magnet


Poster
No poster


Watch-Free-HD     Download

Details
Name:Backpedal 2017 1080p WEB-DL x264 [MW]
Description:

 


General
Format                                   : Matroska
Format version                           : Version 4 / Version 2
File size                                : 1.35 GiB
Duration                                 : 1 h 7 min
Overall bit rate                         : 2 881 kb/s

Video
ID                                       : 1
Format                                   : AVC
Format/Info                              : Advanced Video Codec
Format profile                           : [email protected]
Format settings                          : CABAC / 4 Ref Frames
Format settings, CABAC                   : Yes
Format settings, RefFrames               : 4 frames
Codec ID                                 : V_MPEG4/ISO/AVC
Duration                                 : 1 h 7 min
Bit rate                                 : 2 800 kb/s
Width                                    : 1 920 pixels
Height                                   : 1 080 pixels
Display aspect ratio                     : 16:9
Frame rate mode                          : Constant
Frame rate                               : 23.976 (24000/1001) FPS
Color space                              : YUV
Chroma subsampling                       : 4:2:0
Bit depth                                : 8 bits
Scan type                                : Progressive
Bits/(Pixel*Frame)                       : 0.056
Stream size                              : 1.28 GiB (94%)
Writing library                          : x264 core 155 r2901 7d0ff22
Default                                  : Yes
Forced                                   : No

Audio
ID                                       : 2
Format                                   : AAC
Format/Info                              : Advanced Audio Codec
Format profile                           : LC
Codec ID                                 : A_AAC-2
Duration                                 : 1 h 7 min
Bit rate                                 : 160 kb/s
Channel(s)                               : 2 channels
Channel positions                        : Front: L R
Sampling rate                            : 48.0 kHz
Frame rate                               : 46.875 FPS (1024 SPF)
Compression mode                         : Lossy
Stream size                              : 77.0 MiB (6%)
Language                                 : English
Default                                  : Yes
Forced                                   : No

Text
ID                                       : 3
Format                                   : UTF-8
Codec ID                                 : S_TEXT/UTF8
Codec ID/Info                            : UTF-8 Plain Text
Duration                                 : 1 h 5 min
Bit rate                                 : 101 b/s
Count of elements                        : 1283
Stream size                              : 48.5 KiB (0%)
Language                                 : English
Default                                  : No
Forced                                   : No



 http://pichub.site/image/SJJb0
 http://pichub.site/image/SJYcV
 http://pichub.site/image/SJaUT
 http://pichub.site/image/SJI9N
 http://pichub.site/image/SJRSD
 http://pichub.site/image/SJSKZ

Category:Movies > HDRips
Lang:English  English
Total Size:1.35 GB
Info Hash:35336a71ebd9f37c67889ee964076e82bf51b349
Added By:Freaky
Date Added:17-08-2018 14:05:52
Views:148
Hits:4

Download Torrent

Ratings:Not Yet Rated (Log in to rate it)


Tracker:
udp://tracker.coppersurfer.tk:6969/announce


File List: 


Comments

No comments still posted

Powered by 10 Hamsters v2-svn -|- Page Generated In 0.154974 secs.
-|- RSS FEED
Theme By: Nikkbu