[Login] or [Signup]
Login
Username:
Password:
[Signup]
[Recover Account]


Poll


You must be logged in to view polls



Torrent Details For "Shatru (Bengali Movie) - 2CD - DTHRip[x264 - AAC3(2Ch)]"

Shatru (Bengali Movie) - 2CD - DTHRip[x264 - AAC3(2Ch)]

Download this torrent | Magnet Download
Health:
Seeds: 0
Leechers: 8
Completed: 15 
Last Checked: 01-11-2018 05:34:49
External Torrent
Update Stats
Download Magnet


Poster


iMDB
Imdb Picture Title: Shatru
Year: 1984
Votes: 19
Rating: 7.5/10
Language: Bengali
Country: India
All Genres: Crime, Drama
Director: Anjan Choudhury
Writing By: Pulak Banerjee,Anjan Choudhury,Anjan Choudhury,Anjan Choudhury,
Music: V. Balsara
Cast:
Ranjit Mallick as Subhankar Sanyal
Anup Kumar as
Chiranjit as
Manoj Mitra as Nishikanta Saha
Bikash Roy as
Dilip Roy as
Biplab Chatterjee as Abdul
Prasenjit Chatterjee as
Shakuntala Barua as
Mahua Roy Chowdhury as


Watch-Free-HD     Download

Details
Name:Shatru (Bengali Movie) - 2CD - DTHRip[x264 - AAC3(2Ch)]
Description:
Shatru (Bengali Movie)  - 2CD -
DTHRip[x264 - AAC3(2Ch)]
 



                                               
General
Format                                   : Matroska
Format version                           : Version 4 / Version 2
File size                                : 1.40 GiB
Duration                                 : 2 h 30 min

Video
ID                                       : 1
Format                                   : AVC
Format/Info                              : Advanced Video Codec
Format profile                           : [email protected]
Format settings                          : CABAC / 4 Ref Frames
Format settings, CABAC                   : Yes
Format settings, RefFrames               : 4 frames
Codec ID                                 : V_MPEG4/ISO/AVC
Duration                                 : 2 h 30 min
Bit rate                                 : 1 202 kb/s
Width                                    : 720 pixels
Height                                   : 376 pixels
Display aspect ratio                     : 1.915
Frame rate mode                          : Constant
Frame rate                               : 25.000 FPS
Color space                              : YUV
Chroma subsampling                       : 4:2:0
Bit depth                                : 8 bits
Scan type                                : Progressive
Bits/(Pixel*Frame)                       : 0.178
Stream size                              : 1.27 GiB (90%)

Audio
ID                                       : 2
Format                                   : AAC
Format/Info                              : Advanced Audio Codec
Format profile                           : LC
Codec ID                                 : A_AAC-2
Duration                                 : 2 h 30 min
Bit rate                                 : 128 kb/s
Channel(s)                               : 2 channels
Channel positions                        : Front: L R
Sampling rate                            : 48.0 kHz
Stream size                              : 138 MiB (10%)

Thumbnail




Category:Movies > Bengali
Lang:Bengali  Bengali
Total Size:1.40 GB
Info Hash:9efb1492ecba1ef4fb008227d33602ed9d8184e2
Added By:CyberTron
Date Added:17-08-2018 10:59:12
Views:394
Hits:27

Download Torrent

Ratings:Not Yet Rated (Log in to rate it)

  


Tracker:
http://tracker.torrentbd.net:3840/62ddcca58261fbe412e6965172ba6d91/announce


File List: 


Comments

No comments still posted

Powered by 10 Hamsters v2-svn -|- Page Generated In 0.465264 secs.
-|- RSS FEED
Theme By: Nikkbu