[Login] or [Signup]
Login
Username:
Password:
[Signup]
[Recover Account]


Poll


You must be logged in to view polls



Torrent Details For "Pride.&.Prejudice.2005.BluRay.720p.x264.{Dual.Audio}.[Hindi Org-English].-.Hon3yHD"

Pride.&.Prejudice.2005.BluRay.720p.x264.{Dual.Audio}.[Hindi Org-English].-.Hon3yHD

Download this torrent | Magnet Download
Health:
Seeds: 0
Leechers: 11
Completed: 450 
Last Checked: 18-11-2018 22:50:10
External Torrent
Update Stats
Download Magnet


Poster
No poster


Watch-Free-HD     Download

Details
Name:Pride.&.Prejudice.2005.BluRay.720p.x264.{Dual.Audio}.[Hindi Org-English].-.Hon3yHD
Description:



 http://www.imdb.com/title/tt0414387/

Format                      : Matroska
Format version              : Version 4 / Version 2
File size                   : 1.31 GiB
Duration                    : 2 h 6 min
Overall bit rate            : 1 483 kb/s

Video
ID                          : 1
Format                      : AVC
Format/Info                 : Advanced Video Codec
Format profile              : [email protected]
Format settings             : CABAC / 8 Ref Frames
Format settings, CABAC      : Yes
Format settings, ReFrames   : 8 frames
Codec ID                    : V_MPEG4/ISO/AVC
Duration                    : 2 h 6 min
Bit rate                    : 1 200 kb/s
Width                       : 1 280 pixels
Height                      : 548 pixels
Display aspect ratio        : 2.35:1
Frame rate mode             : Constant
Frame rate                  : 23.976 (24000/1001) FPS

Audio #1
ID                          : 2
Format                      : AAC
Format/Info                 : Advanced Audio Codec
Format profile              : LC
Codec ID                    : A_AAC-2
Duration                    : 2 h 6 min
Bit rate                    : 128 kb/s
Channel(s)                  : 2 channels
Channel positions           : Front: L R
Sampling rate               : 48.0 kHz
Frame rate                  : 46.875 FPS (1024 SPF)
Compression mode            : Lossy
Delay relative to video     : 1 s 579 ms
Stream size                 : 116 MiB (9%)
Title                       : Stereo
Language                    : Hindi

Audio #2
ID                          : 3
Format                      : AAC
Format/Info                 : Advanced Audio Codec
Format profile              : LC
Codec ID                    : A_AAC-2
Duration                    : 2 h 6 min
Bit rate                    : 128 kb/s
Channel(s)                  : 2 channels
Channel positions           : Front: L R
Sampling rate               : 48.0 kHz
Frame rate                  : 46.875 FPS (1024 SPF)
Compression mode            : Lossy
Delay relative to video     : -21 ms
Stream size                 : 116 MiB (9%)
Title                       : Stereo
Language                    : English

 http://hon3yhd.net

       
Category:Movies > Hollywood Dub
Lang:Hindi
Total Size:1.31 GB
Info Hash:050a4a4d9d2bd3f1f5d5d2770fac7a6dc854b0e4
Added By:Hon3y
Date Added:12-08-2018 09:29:31
Views:441
Hits:55

Download Torrent

Ratings:Not Yet Rated (Log in to rate it)


Tracker:
udp://tracker.coppersurfer.tk:6969/announce


File List: 


Comments

No comments still posted

Powered by 10 Hamsters v2-svn -|- Page Generated In 0.423546 secs.
-|- RSS FEED
Theme By: Nikkbu