[Login] or [Signup]
Login
Username:
Password:
[Signup]
[Recover Account]


Poll


You must be logged in to view polls



Torrent Details For "Skyscraper (2018) 720p HDRip Dual Audio [Audio Cleand] [Hindi-English] 800MB [HDFilmBoss]"

Skyscraper (2018) 720p HDRip Dual Audio [Audio Cleand] [Hindi-English] 800MB [HDFilmBoss]

Download this torrent | Magnet Download
Health:
Seeds: 0
Leechers: 0
Completed:
Last Checked: 18-08-2018 18:52:29
External Torrent
Update Stats
Download Magnet


Poster


iMDB
Imdb Picture Title: Skyscraper
Year: 2018
Runtime: 102 minutes
Votes: 2668
Rating: 6.1/10
Language: English
Country: USA
All Genres: Action, Crime, Drama, Thriller
Plot Outline: FBI Hostage Rescue Team leader and U.S. war veteran Will Sawyer now assesses security for skyscrapers. On assignment in Hong Kong he finds the tallest, safest building in the world suddenly ablaze, and he's been framed for it. A wanted man on the run, Will must find those responsible, clear his name and somehow rescue his family who are trapped inside the building...above the fire line.


Tagline: The sky is the limit.
Director: Rawson Marshall Thurber
Writing By: Rawson Marshall Thurber,
Produced By: James Bitonti,Beau Flynn,Dany Garcia,Hiram Garcia,Eric Hedayat,Petra Holtorf,Wendy Jacobson,Dwayne Johnson,Eric McLeod,Ali Mendes,Mary Parent,David Siegel,
Music: Steve Jablonsky
Cast:
Dwayne Johnson as Will Sawyer
Neve Campbell as Sarah Sawyer
Pablo Schreiber as Ben
Noah Taylor as Mr. Pierce
McKenna Roberts as Georgia Sawyer
Kevin Rankin as Ray
Roland Møller as Kores Botha
Byron Mann as Inspector Wu
Matt O'Leary as Skinny Hacker
Hannah Quinlivan as Xia
Trailers:
Official Trailer #3
Official Trailer #2
Official Trailer
Big Game Spot


Watch-Free-HD     Download

Details
Name:Skyscraper (2018) 720p HDRip Dual Audio [Audio Cleand] [Hindi-English] 800MB [HDFilmBoss]
Description:
General
Complete name                            : skyscraper (2018) 720p HDRip Dual Audio [Audio Cleand] [Hindi-English] 800MB-[HDFilmBoss.Net].MP4
Format                                   : MPEG-4
Format profile                           : Base Media
Codec ID                                 : isom (isom/iso2/avc1/mp41)
File size                                : 847 MiB
Duration                                 : 1 h 42 min
Overall bit rate mode                    : Variable
Overall bit rate                         : 1 155 kb/s
Movie name                               : HDFilmBoss.Net
Writing application                      : Lavf57.83.100

Video
ID                                       : 1
Format                                   : AVC
Format/Info                              : Advanced Video Codec
Format profile                           : [email protected]
Format settings                          : CABAC / 4 Ref Frames
Format settings, CABAC                   : Yes
Format settings, RefFrames               : 4 frames
Codec ID                                 : avc1
Codec ID/Info                            : Advanced Video Coding
Duration                                 : 1 h 42 min
Bit rate                                 : 1 024 kb/s
Width                                    : 1 280 pixels
Height                                   : 536 pixels
Display aspect ratio                     : 2.40:1
Frame rate mode                          : Variable
Frame rate                               : 30.000 FPS
Minimum frame rate                       : 20.000 FPS
Maximum frame rate                       : 58.824 FPS
Color space                              : YUV
Chroma subsampling                       : 4:2:0
Bit depth                                : 8 bits
Scan type                                : Progressive
Bits/(Pixel*Frame)                       : 0.050
Stream size                              : 750 MiB (89%)
Title                                    : HDFilmBoss.Net
Writing library                          : x264 core 142 r2495 6a301b6
Language                                 : English

Audio
ID                                       : 2
Format                                   : AAC
Format/Info                              : Advanced Audio Codec
Format profile                           : LC
Codec ID                                 : mp4a-40-2
Duration                                 : 1 h 42 min
Duration_LastFrame                       : -24 ms
Bit rate mode                            : Variable
Bit rate                                 : 126 kb/s
Maximum bit rate                         : 128 kb/s
Channel(s)                               : 2 channels
Channel positions                        : Front: L R
Sampling rate                            : 16.0 kHz
Frame rate                               : 15.625 FPS (1024 SPF)
Compression mode                         : Lossy
Stream size                              : 92.1 MiB (11%)
Title                                    : HDFilmBoss.Net
Language                                 : Hindi
Default                                  : Yes
Alternate group                          : 1








Category:Movies > Hollywood Dub
Lang:Hindi
Total Size:846.54 MB
Info Hash:da04422f53c128da7d7367901ac4b7a83ba32304
Added By:HDFilmBoss
Date Added:11-08-2018 07:01:21
Views:1,044
Hits:196

Download Torrent

Ratings:Not Yet Rated (Log in to rate it)


Tracker:
UDP://TRACKER.ZER0DAY.TO:1337/ANNOUNCE


File List: 


Comments

No comments still posted

Powered by 10 Hamsters v2-svn -|- Page Generated In 0.404368 secs.
-|- RSS FEED
Theme By: Nikkbu