[Login] or [Signup]
Login
Username:
Password:
[Signup]
[Recover Account]


Poll


You must be logged in to view polls



Torrent Details For "You.Dont.Mess.With.The.Zohan.Unrated.Extended.(2008).720p.BluRay.x264.{Hind.DD5.1.Eng}.-.Hon3yH..."

You.Dont.Mess.With.The.Zohan.Unrated.Extended.(2008).720p.BluRay.x264.{Hind.DD5.1.Eng}.-.Hon3yH...

Download this torrent | Magnet Download
Health:
Seeds: 0
Leechers: 0
Completed:
Last Checked: 10-08-2018 15:53:51
External Torrent
Update Stats
Download Magnet


Poster


iMDB
Imdb Picture Title: You Don't Mess with the Zohan
Year: 2008
Runtime: 113 minutes
Votes: 165619
Rating: 5.5/10
Language: English, Hebrew
Country: USA
All Genres: Action, Comedy
Plot Outline: An Israeli Special Forces Soldier fakes his death so he can re-emerge in New York City as a hair stylist.
Tagline: Lather. Rinse. Save the world.
Director: Dennis Dugan
Writing By: Adam Sandler,Robert Smigel,Judd Apatow,
Produced By: Barry Bernardi,Jack Giarraputo,Kevin Grady,Daryl Kass,Gadi Levy,Judit Maull,Aldric La'auli Porter,Adam Sandler,Robert Smigel,
Music: Rupert Gregson-Williams
Cast:
Adam Sandler as Zohan
John Turturro as Phantom
Emmanuelle Chriqui as Dalia
Nick Swardson as Michael
Lainie Kazan as Gail
Ido Mosseri as Oori
Rob Schneider as Salim
Dave Matthews as James
Michael Buffer as Walbridge
Charlotte Rae as Mrs. Greenhouse
Trailers:
You Don't Mess with the Zohan
You Don't Mess with the Zohan


Watch-Free-HD     Download

Details
Name:You.Dont.Mess.With.The.Zohan.Unrated.Extended.(2008).720p.BluRay.x264.{Hind.DD5.1.Eng}.-.Hon3yH...
Description:
Format                      : Matroska
Format version              : Version 4 / Version 2
File size                   : 1.31 GiB
Duration                    : 1 h 56 min
Overall bit rate            : 1 607 kb/s

Video
ID                          : 1
Format                      : AVC
Format/Info                 : Advanced Video Codec
Format profile              : [email protected]
Format settings             : CABAC / 8 Ref Frames
Format settings, CABAC      : Yes
Format settings, ReFrames   : 8 frames
Codec ID                    : V_MPEG4/ISO/AVC
Duration                    : 1 h 56 min
Bit rate                    : 1 000 kb/s
Width                       : 1 280 pixels
Height                      : 688 pixels
Display aspect ratio        : 1.85:1
Frame rate mode             : Constant
Frame rate                  : 23.976 (24000/1001) FPS

Audio #1
ID                          : 2
Format                      : AC-3
Format/Info                 : Audio Coding 3
Commercial name             : Dolby Digital
Codec ID                    : A_AC3
Duration                    : 1 h 56 min
Bit rate mode               : Constant
Bit rate                    : 448 kb/s
Channel(s)                  : 6 channels
Channel positions           : Front: L C R, Side: L R, LFE
Sampling rate               : 48.0 kHz
Frame rate                  : 31.250 FPS (1536 SPF)
Bit depth                   : 16 bits
Compression mode            : Lossy
Delay relative to video     : -21 ms
Stream size                 : 374 MiB (28%)
Title                       : Hindi Org DVD 5.1 448 kbps
Language                    : Hindi
Service kind                : Complete Main


Audio #2
ID                          : 3
Format                      : AAC
Format/Info                 : Advanced Audio Codec
Format profile              : LC
Codec ID                    : A_AAC-2
Duration                    : 1 h 56 min
Bit rate                    : 128 kb/s
Channel(s)                  : 2 channels
Channel positions           : Front: L R
Sampling rate               : 48.0 kHz
Frame rate                  : 46.875 FPS (1024 SPF)
Compression mode            : Lossy
Delay relative to video     : -21 ms
Stream size                 : 107 MiB (8%)
Title                       : Stereo
Language                    : English

       
Category:Movies > Hollywood Dub
Lang:Hindi
Total Size:1.31 GB
Info Hash:580cfb95d802629a908dd79d3af8e72a956c22ac
Added By:Hon3y
Date Added:10-08-2018 15:53:51
Views:446
Hits:75

Download Torrent

Ratings:Not Yet Rated (Log in to rate it)


Tracker:
udp://tracker.coppersurfer.tk:6969/announce


File List: 


Comments

No comments still posted

Powered by 10 Hamsters v2-svn -|- Page Generated In 1.138260 secs.
-|- RSS FEED
Theme By: Nikkbu