[Login] or [Signup]
Login
Username:
Password:
[Signup]
[Recover Account]


Poll


You must be logged in to view polls



Torrent Details For "Khajoor Pe Atke 2018 x264 720p TV RIP Hindi GOPISAHI"

Khajoor Pe Atke 2018 x264 720p TV RIP Hindi GOPISAHI

Download this torrent | Magnet Download
Health:
Seeds: 0
Leechers: 0
Completed:
Last Checked: 09-08-2018 05:55:38
External Torrent
Update Stats
Download Magnet


Poster
No poster


Watch-Free-HD     Download

Details
Name:Khajoor Pe Atke 2018 x264 720p TV RIP Hindi GOPISAHI
Description:
 http://www.gopisahi.pw/

Format                         : Matroska

Format version                 : Version 4 / Version 2

File size                      : 563 MiB

Duration                       : 1 h 52 min

Overall bit rate               : 698 kb/s

Movie name                     : Khajoor Pe Atke 2018 GOPISAHI


Video

Format                         : AVC

Format/Info                    : Advanced Video Codes

Format settings, ReFrames      : 16 frames

Codec ID                       : V_MPEG4/ISO/AVC

Duration                       : 1 h 52 min

Bit rate                       : 599 kb/s

Width                          : 1 276 pixels

Height                         : 536 pixels

Display aspect ratio           : 2.40:1

Frame rate mode                : Constant

Frame rate                     : 29.970 (30000/1001) FPS

Color space                    : YUV

Chroma subsampling             : 4:2:0

Bit depth                      : 8 bits

Scan type                      : Progressive

Bits/(Pixel*Frame)             : 0.029

Stream size                    : 483 MiB (86%)

Title                          : GOPISAHI

Writing library                : x264 core 155 r2901 7d0ff22


Audio

Format                         : AAC

Format/Info                    : Advanced Audio Codec

Duration                       : 1 h 52 min

Bit rate                       : 96.0 kb/s

Channel(s)                     : 2 channels

Channel positions              : Front: L R

Sampling rate                  : 48.0 kHz

Frame rate                     : 46.875 FPS (1024 SPF)

Compression mode               : Lossy

Delay relative to video        : -21 ms

Stream size                    : 77.6 MiB (14%)

Title                          : GOPISAHI

Language                       : Hindi


Category:Movies > Bollywood
Lang:Hindi
Total Size:562.91 MB
Info Hash:b0a6390a803e8e5effe7167d6cc56e6a67d2a97b
Added By:gopisahi
Date Added:09-08-2018 05:55:38
Views:718
Hits:71

Download Torrent

Ratings:Not Yet Rated (Log in to rate it)


Tracker:
udp://tracker.torrent.eu.org:451/announce

This Torrent also has backup trackers
URLSeedersLeechersCompleted
http://retracker.spb.ru:80/announce000
http://t.nyaatracker.com:80/announce000
http://retracker.mgts.by:80/announce000
http://tracker2.itzmx.com:6961/announce000


File List: 


Comments

No comments still posted

Powered by 10 Hamsters v2-svn -|- Page Generated In 0.279836 secs.
-|- RSS FEED
Theme By: Nikkbu