[Login] or [Signup]
Login
Username:
Password:
[Signup]
[Recover Account]


Poll


You must be logged in to view polls



Torrent Details For "In The Dog House 2014 x264 720p HD Hindi GOPISAHI"

In The Dog House 2014 x264 720p HD Hindi GOPISAHI

Download this torrent | Magnet Download
Health:
Seeds: 0
Leechers: 14
Completed:
Last Checked: 06-10-2018 10:17:40
External Torrent
Update Stats
Download Magnet


Poster
No poster


Watch-Free-HD     Download

Details
Name:In The Dog House 2014 x264 720p HD Hindi GOPISAHI
Description:
 http://www.gopisahi.pw/

Format                         : Matroska
Format version                 : Version 4 / Version 2
File size                      : 352 MiB
Duration                       : 1 h 10 min
Overall bit rate               : 696 kb/s
Movie name                     : In The Dog House 2014 GOPISAHI

Video
Format                         : AVC
Format/Info                    : Advanced Video Codec
Codec ID                       : V_MPEG4/ISO/AVC
Duration                       : 1 h 10 min
Bit rate                       : 599 kb/s
Width                          : 1 280 pixels
Height                         : 720 pixels
Display aspect ratio           : 16:9
Frame rate mode                : Constant
Frame rate                     : 25.000 FPS
Color space                    : YUV
Chroma subsampling             : 4:2:0
Bit depth                      : 8 bits
Scan type                      : Progressive
Bits/(Pixel*Frame)             : 0.026
Stream size                    : 303 MiB (86%)
Title                          : GOPISAHI
Writing library                : x264 core 155 r2901 7d0ff22

Audio
Format                         : AAC
Duration                       : 1 h 10 min
Bit rate                       : 96.0 kb/s
Channel(s)                     : 2 channels
Channel positions              : Front: L R
Sampling rate                  : 48.0 kHz
Frame rate                     : 46.875 FPS (1024 SPF)
Compression mode               : Lossy
Delay relative to video        : -42 ms
Stream size                    : 48.7 MiB (14%)
Title                          : GOPISAHI
Language                       : Hindi


Category:Movies > Hollywood Dub
Lang:Hindi
Total Size:352.36 MB
Info Hash:45016d4ec7a4f4a768078263e71eda236b2eaecb
Added By:gopisahi
Date Added:08-08-2018 06:34:57
Views:389
Hits:48

Download Torrent

Ratings:Not Yet Rated (Log in to rate it)


Tracker:
udp://tracker.torrent.eu.org:451/announce

This Torrent also has backup trackers
URLSeedersLeechersCompleted
http://retracker.spb.ru:80/announce000
http://t.nyaatracker.com:80/announce000
http://retracker.mgts.by:80/announce013
http://tracker2.itzmx.com:6961/announce010


File List: 


Comments

No comments still posted

Powered by 10 Hamsters v2-svn -|- Page Generated In 0.462948 secs.
-|- RSS FEED
Theme By: Nikkbu