[Login] or [Signup]
Login
Username:
Password:
[Signup]
[Recover Account]


Poll


You must be logged in to view polls



Torrent Details For "The Holcroft Covenant 1985 x264 720p Esub BluRay Dual Audio English Hindi GOPISAHI"

The Holcroft Covenant 1985 x264 720p Esub BluRay Dual Audio English Hindi GOPISAHI

Download this torrent | Magnet Download
Health:
Seeds: 0
Leechers: 2
Completed:
Last Checked: 06-10-2018 17:25:27
External Torrent
Update Stats
Download Magnet


Poster
No poster


Watch-Free-HD     Download

Details
Name:The Holcroft Covenant 1985 x264 720p Esub BluRay Dual Audio English Hindi GOPISAHI
Description:
 http://www.gopisahi.pw/


Format                         : Matroska

Format version                 : Version 4 / Version 2

File size                      : 720 MiB

Duration                       : 1 h 52 min

Overall bit rate               : 894 kb/s

Movie name                     : The Holcroft Covenant 1985 GOPISAHI


Video

Format                         : AVC

Codec ID                       : V_MPEG4/ISO/AVC

Duration                       : 1 h 52 min

Bit rate                       : 699 kb/s

Width                          : 1 280 pixels

Height                         : 692 pixels

Display aspect ratio           : 1.85:1

Frame rate mode                : Constant

Frame rate                     : 23.976 (24000/1001) FPS

Color space                    : YUV

Chroma subsampling             : 4:2:0

Bit depth                      : 8 bits

Scan type                      : Progressive

Bits/(Pixel*Frame)             : 0.033

Stream size                    : 563 MiB (78%)

Title                          : GOPISAHI

Writing library                : x264 core 155 r2901 7d0ff22


Audio #1

Format                         : AAC

Duration                       : 1 h 52 min

Bit rate                       : 96.0 kb/s

Channel(s)                     : 2 channels

Channel positions              : Front: L R

Sampling rate                  : 48.0 kHz

Frame rate                     : 46.875 FPS (1024 SPF)

Compression mode               : Lossy

Delay relative to video        : -21 ms

Stream size                    : 77.3 MiB (11%)

Title                          : GOPISAHI

Language                       : Hindi


Audio #2

Format                         : AAC

Duration                       : 1 h 52 min

Bit rate                       : 96.0 kb/s

Channel(s)                     : 2 channels

Channel positions              : Front: L R

Sampling rate                  : 48.0 kHz

Frame rate                     : 46.875 FPS (1024 SPF)

Compression mode               : Lossy

Delay relative to video        : -21 ms

Stream size                    : 77.5 MiB (11%)

Title                          : GOPISAHI

Language                       : English


Text

Language                       : English


Category:Movies > Hollywood Dub
Lang:Hindi
Total Size:720.32 MB
Info Hash:d61464057211d187fb87fe320d156b31002d583f
Added By:gopisahi
Date Added:02-08-2018 03:27:23
Views:712
Hits:39

Download Torrent

Ratings:Not Yet Rated (Log in to rate it)


Tracker:
udp://tracker.tiny-vps.com:6969/announce

This Torrent also has backup trackers
URLSeedersLeechersCompleted
http://share.camoe.cn:8080/announce000
http://retracker.spb.ru:80/announce151111
http://tracker.torrentsnows.com:443/announce1280
http://t.nyaatracker.com:80/announce12614
http://tracker.tfile.co:80/announce000
http://peersteers.org:80/announce000
http://retracker.mgts.by:80/announce0011
http://tracker2.itzmx.com:6961/announce000


File List: 


Comments

No comments still posted

Powered by 10 Hamsters v2-svn -|- Page Generated In 1.849269 secs.
-|- RSS FEED
Theme By: Nikkbu