[Login] or [Signup]
Login
Username:
Password:
[Signup]
[Recover Account]


Poll


You must be logged in to view polls



Torrent Details For "Saala Khadoos (2016) Hindi 720p Blu-Ray x264 AAC { TaRa }.mkv"

Saala Khadoos (2016) Hindi 720p Blu-Ray x264 AAC { TaRa }.mkv

Download this torrent | Magnet Download
Health:
Seeds: 0
Leechers: 4
Completed:
Last Checked: 30-07-2018 14:44:27
External Torrent
Update Stats
Download Magnet


Poster


Watch-Free-HD     Download

Details
Name:Saala Khadoos (2016) Hindi 720p Blu-Ray x264 AAC { TaRa }.mkv
Description:

Quote:

Saala Khadoos (2016) Hindi 720p Blu-Ray x264 AAC { TaRa }.mkv


===================================================================
General
Complete name               : Saala Khadoos (2016) Hindi 720p Blu-Ray x264 AAC { TaRa }.mkv
Format                      : Matroska
Format version              : Version 4 / Version 2
File size                   : 1.91 GiB
Duration                    : 1 h 46 min
Overall bit rate mode       : Variable
Overall bit rate            : 2 558 kb/s
===================================================================
Video
ID                          : 1
Format                      : AVC
Format/Info                 : Advanced Video Codec
Format profile              : [email protected]
Format settings, CABAC      : Yes
Format settings, ReFrames   : 3 frames
Codec ID                    : V_MPEG4/ISO/AVC
Duration                    : 1 h 46 min
Bit rate mode               : Variable
Bit rate                    : 2 405 kb/s
Maximum bit rate            : 40.0 Mb/s
Width                       : 1 280 pixels
Height                      : 544 pixels
Display aspect ratio        : 2.35:1
Frame rate mode             : Constant
Frame rate                  : 30.000 FPS
Color space                 : YUV
Chroma subsampling          : 4:2:0
Bit depth                   : 8 bits
Scan type                   : Progressive
Bits/(Pixel*Frame)          : 0.115
Stream size                 : 1.79 GiB (94%)
Title                       : .....::::: TaRa :::::.....
Language                    : Hindi
Default                     : Yes
Forced                      : No
===================================================================
Audio
ID                          : 2
Format                      : AAC
Format/Info                 : Advanced Audio Codec
Format profile              : LC
Codec ID                    : A_AAC
Duration                    : 1 h 46 min
Bit rate                    : 150 kb/s
Channel(s)                  : 2 channels
Channel positions           : Front: L R
Sampling rate               : 44.1 kHz
Frame rate                  : 43.066 FPS (1024 spf)
Compression mode            : Lossy
Stream size                 : 114 MiB (6%)
Title                       : .....::::: TaRa :::::.....
Language                    : Hindi
Default                     : Yes
Forced                      : No
===================================================================














Category:Movies > 720P Bluray
Lang:Hindi
Total Size:1.91 GB
Info Hash:47573e40282e22f0b99abd9a8c2fd38a744029a8
Added By:SkTaRa
Date Added:27-03-2017 17:01:55
Views:715
Hits:104

Download Torrent

Ratings:Not Yet Rated (Log in to rate it)

  


Tracker:
udp://tracker.ccc.de:80/announce

This Torrent also has backup trackers
URLSeedersLeechersCompleted
http://tracker.dler.org:6969/announce000
http://ipv4.tracker.harry.lu:80/announce150


File List: 


Comments

No comments still posted

Powered by 10 Hamsters v2-svn -|- Page Generated In 1.659121 secs.
-|- RSS FEED
Theme By: Nikkbu