[Login] or [Signup]
Login
Username:
Password:
[Signup]
[Recover Account]


Poll


You must be logged in to view polls



Torrent Details For "Duck Duck Goose 2018 720p BRRip x264 ESub [MW]"

Duck Duck Goose 2018 720p BRRip x264 ESub [MW]

Download this torrent | Magnet Download
Health:
Seeds: 0
Leechers: 17
Completed: 995 
Last Checked: 07-11-2018 20:18:53
External Torrent
Update Stats
Download Magnet


Poster
No poster


Watch-Free-HD     Download

Details
Name:Duck Duck Goose 2018 720p BRRip x264 ESub [MW]
Description:

 


General
Format                                   : Matroska
Format version                           : Version 4 / Version 2
File size                                : 748 MiB
Duration                                 : 1 h 31 min
Overall bit rate                         : 1 145 kb/s

Video
ID                                       : 1
Format                                   : AVC
Format/Info                              : Advanced Video Codec
Format profile                           : [email protected]
Format settings                          : CABAC / 4 Ref Frames
Format settings, CABAC                   : Yes
Format settings, RefFrames               : 4 frames
Codec ID                                 : V_MPEG4/ISO/AVC
Duration                                 : 1 h 31 min
Bit rate                                 : 1 050 kb/s
Width                                    : 1 280 pixels
Height                                   : 536 pixels
Display aspect ratio                     : 2.40:1
Frame rate mode                          : Constant
Frame rate                               : 23.976 (24000/1001) FPS
Color space                              : YUV
Chroma subsampling                       : 4:2:0
Bit depth                                : 8 bits
Scan type                                : Progressive
Bits/(Pixel*Frame)                       : 0.064
Stream size                              : 680 MiB (91%)
Writing library                          : x264 core 155 r2901 7d0ff22
Default                                  : Yes
Forced                                   : No

Audio
ID                                       : 3
Format                                   : AAC
Format/Info                              : Advanced Audio Codec
Format profile                           : HE-AAC / LC
Format settings                          : Explicit
Codec ID                                 : A_AAC-2
Duration                                 : 1 h 31 min
Bit rate                                 : 96.0 kb/s
Channel(s)                               : 2 channels
Channel positions                        : Front: L R
Sampling rate                            : 48.0 kHz / 24.0 kHz
Frame rate                               : 23.438 FPS (1024 SPF)
Compression mode                         : Lossy
Stream size                              : 61.9 MiB (8%)
Language                                 : English
Default                                  : Yes
Forced                                   : No

Text
ID                                       : 2
Format                                   : VobSub
Muxing mode                              : zlib
Codec ID                                 : S_VOBSUB
Codec ID/Info                            : Picture based subtitle format used on DVDs
Duration                                 : 1 h 23 min
Bit rate                                 : 9 193 b/s
Count of elements                        : 1435
Stream size                              : 5.46 MiB (1%)
Language                                 : English
Default                                  : Yes
Forced                                   : No

Menu
00:00:00.000                             : en:00:00:00.000
00:04:28.435                             : en:00:04:28.393
00:09:52.342                             : en:00:09:52.300
00:14:37.418                             : en:00:14:37.293
00:22:24.969                             : en:00:22:24.927
00:28:30.500                             : en:00:28:30.417
00:34:29.234                             : en:00:34:29.150
00:42:23.541                             : en:00:42:23.541
00:48:38.290                             : en:00:48:38.207
00:59:05.167                             : en:00:59:05.041
01:05:32.971                             : en:01:05:32.846
01:14:47.566                             : en:01:14:47.483


Click To Enlarge Image

 
 
 
 
 
 

Category:Movies > 720P Bluray
Lang:English  English
Total Size:748.17 MB
Info Hash:6634e8f3db4badb5664f5cc08f06995dfd59ee9a
Added By:Freaky
Date Added:22-07-2018 17:19:03
Views:339
Hits:26

Download Torrent

Ratings:Not Yet Rated (Log in to rate it)


Tracker:
udp://tracker.coppersurfer.tk:6969/announce


File List: 


Comments

No comments still posted

Powered by 10 Hamsters v2-svn -|- Page Generated In 3.801140 secs.
-|- RSS FEED
Theme By: Nikkbu