[Login] or [Signup]
Login
Username:
Password:
[Signup]
[Recover Account]


Poll


You must be logged in to view polls



Torrent Details For "Terror 2 (Basanti) (2018) 720p Hindi Dubbed WEBHD x264 AAC [MovCr]"

Terror 2 (Basanti) (2018) 720p Hindi Dubbed WEBHD x264 AAC [MovCr]

Download this torrent | Magnet Download
Health:
Seeds: 0
Leechers: 6
Completed: 1,726 
Last Checked: 22-10-2018 02:24:11
External Torrent
Update Stats
Download Magnet


Poster


iMDB
Imdb Picture Title: Basanti
Year: 2014
Runtime: 122 minutes
Votes: 47
Rating: 7.1/10
Language: Telugu
Country: India
All Genres: Drama
Plot Outline: A group of students are taken as hostages in their own 'Basanti College' by a gang of terrorists. Written by StartCamera Pictures


Tagline: This is not just a Love Story
Director: Chaitanya Dantuluri
Writing By: Chaitanya Dantuluri,Chaitanya Dantuluri,
Produced By: Chaitanya Dantuluri,Vivek Kuchibhotla,
Music: Mani Sharma
Cast:
Alisha Baig as Roshini
Tanikella Bharani as Kodhandapaani
Randhir Gatla as Abbas Khan
Raja Goutham as Arjun
Sayaji Shinde as Commissioner Ali Khan


Watch-Free-HD     Download

Details
Name:Terror 2 (Basanti) (2018) 720p Hindi Dubbed WEBHD x264 AAC [MovCr]
Description:
[b]Visit  www.movcr.com


Terror 2 (Basanti) (2018) 720p Hindi Dubbed WEBHD x264 AAC [MovCr][/b]


 http://www.imdb.com/title/tt3432010/

 

General
Unique ID                                : 215457408423372482703344179631986413374 (0xA2179663ED4D1D6E10A4A20460558F3E)
Complete name                            : www.MovCr.com - Terror 2 (Basanti) (2018) 720p Hindi Dubbed WEBHD x264 AAC [MovCr].mkv
Format                                   : Matroska
Format version                           : Version 4 / Version 2
File size                                : 962 MiB
Duration                                 : 1 h 43 min
Overall bit rate                         : 1 293 kb/s
Movie name                               : www.MovCr.com
Encoded date                             : UTC 2018-07-21 06:05:42
Writing application                      : mkvmerge v23.0.0 ('The Bride Said No') 64-bit
Writing library                          : libebml v1.3.6 + libmatroska v1.4.9

Video
ID                                       : 1
Format                                   : AVC
Format/Info                              : Advanced Video Codec
Format profile                           : [email protected]
Format settings                          : CABAC / 4 Ref Frames
Format settings, CABAC                   : Yes
Format settings, RefFrames               : 4 frames
Format settings, GOP                     : M=3, N=25
Codec ID                                 : V_MPEG4/ISO/AVC
Duration                                 : 1 h 43 min
Bit rate                                 : 1 195 kb/s
Width                                    : 1 280 pixels
Height                                   : 720 pixels
Display aspect ratio                     : 16:9
Frame rate mode                          : Constant
Frame rate                               : 25.000 FPS
Color space                              : YUV
Chroma subsampling                       : 4:2:0
Bit depth                                : 8 bits
Scan type                                : Progressive
Bits/(Pixel*Frame)                       : 0.052
Stream size                              : 888 MiB (92%)
Title                                    : www.MovCr.com
Writing library                          : Zencoder Video Encoding System
Default                                  : Yes
Forced                                   : No
Color range                              : Limited
Color primaries                          : BT.709
Transfer characteristics                 : BT.709
Matrix coefficients                      : BT.709

Audio
ID                                       : 2
Format                                   : AAC
Format/Info                              : Advanced Audio Codec
Format profile                           : LC
Codec ID                                 : A_AAC-2
Duration                                 : 1 h 43 min
Bit rate                                 : 96.0 kb/s
Channel(s)                               : 2 channels
Channel positions                        : Front: L R
Sampling rate                            : 48.0 kHz
Frame rate                               : 46.875 FPS (1024 SPF)
Compression mode                         : Lossy
Stream size                              : 71.4 MiB (7%)
Default                                  : Yes
Forced                                   : No



 
 
 
 
 
 
 
 
 
Category:Movies > South Dub
Lang:Hindi
Total Size:961.66 MB
Info Hash:c01292830cfe11287e3ea52c1c162ba65056f5d2
Added By:MAZE
Date Added:21-07-2018 07:15:23
Views:2,399
Hits:249

Download Torrent

Ratings:Not Yet Rated (Log in to rate it)


Tracker:
udp://tracker.coppersurfer.tk:6969/announce


File List: 


Comments

No comments still posted

Powered by 10 Hamsters v2-svn -|- Page Generated In 1.733126 secs.
-|- RSS FEED
Theme By: Nikkbu