[Login] or [Signup]
Login
Username:
Password:
[Signup]
[Recover Account]


Poll


You must be logged in to view polls



Torrent Details For "Masterchef.US.S08E04.HDTV.x264-W4F [HDSector]"

Masterchef.US.S08E04.HDTV.x264-W4F [HDSector]

Download this torrent | Magnet Download
Health:
Seeds: 0
Leechers: 4
Completed: 25,969 
Last Checked: 08-11-2018 16:22:12
External Torrent
Update Stats
Download Magnet


Poster


iMDB
Imdb Picture Title: Masterchef
Year: 2010
Runtime: 42 minutes
Votes: 5823
Rating: 7.3/10
Language: English
Country: USA
All Genres: Game-Show, Reality-TV
Plot Outline: A nationwide search for the best home cooks in America. One of 50 hopefuls will become a culinary star and one of America's "Masterchefs."
Tagline: Meet the tastemakers.
Director: Brian Smith
Writing By: Franc Roddam,Ben Adler,Robin Ashbrook,Pat Llewellyn,Howard T. Owens,Gordon Ramsay,Adeline Ramage Rooney,
Produced By: Brian Smith,Robin Ashbrook,Yasmin Shackleton,Adeline Ramage Rooney,Matt Pella,Gordon Ramsay,Thomas J. Rasera,Elisabeth Murdoch,Aaron Catling,Charlie Ryan,Brad Kingston,Sandee Birdsong,Patricia Llewellyn,Joanne Takahashi,Adam Cooper,Ben Adler,Scott Mlodzinski,Maureen Biegas,Eden Gaha,Claudine Magre,Todd Sachs,Suzy Beck,Ethan Cohan,Danny Jordan,Amanda Dobkowitz,Sandra J. Ciccone,Matthew Weil,Dan Keats,Brooke Bennett,Scott Raigel,Dale Pitman,LeRoy A. Warner Jr.,Justin Germono,Brent Schwebel,Jonathan Bourne,Krista Chael,Whitnee Null,Derrick Ah Sam,Kelly Franklin,Malia McInnes,Demetreos Katsafados,Neomi Peries,Devin Daley,Daniel Calin,Nina Steffel,Kelia Tardiff,Noel O'Connor,Avery Pursell,Marisa Wahl,Maggie Brockmann,Patrick Reina,Paul Franklin,Andrew Rager,Jamie Lauren,Melissa Stokes,Kimberly Goodman,Cara Chandler,Andrea Masamitsu,Adam M. Neal,Levon Mergian,Tats Wada,Will Ehbrecht,Mary Keledjian,Desphina Vorgeas,Felipe Castillo,Lindsay Marcus,James Sunshine,Hunter Johnson,Ryan Braun,Hollie Self,Dan Sacks,Dawn Haber,Liz Lanphear,Thi Nguyen,Cat Sullivan,Cassidy Bernhard,Brady Hess,Candace Infuso,Joe Neary,Michael Carroll,Allison Mandell,Darin Kato,Benjamin Kronick,William Lamkin,Andrew Mallon,Mara Mote,Jeremy Pearce,Jamie Lauren Davis,Michael Kanaju,Jane Bolin,Greg Gerosky,Chad Bennett,Ryan Bunnell,Annie Imhoff,Joplin Matthews-Wright,Jeff Parker,Gracelyn Woods,Chris Rattican,Elisabeth Murdoch,Howard T. Owens,Kevin Mendonca,Taya Shapiro,Melanie Stuparyk,Catherine Thoma,Adam Sheldon,J.C. Babas,David Braun,JoAnn Cianciulli,Martha Owens,Lisa Michelle Singer,Elizabeth Cook,Melanie Oberman,Cameron Glenar,Ericka Jones,Pollyanna Jacobs,Dave Bogosian,Andrea Pugliese,Michael Pulte,D.J. Nurre,Hayden T. Mauk,Meredith Prunkard,Sarah Carney,Christina DerHagopian,Stephen Ashton Booth,Autumn deVitry,Leslie Spann,Clay Murphy,Elizabeth Sandorff,Katy Dierks,Kevin Finn,Nikki Hedlund,Stephanie Williams,Will Baker,Megan Firestone,Liz Custer,Stephanie Sacco,Robert McLeod,Mark Koops,Todd A. Nelson,Franc Roddam,J.D. Roth,
Music: Jeff Lippencott Mark T. Williams Anthony Ammar Mitch Stewart Adam Gock Dinesh Wicks
Plot:

A nationwide search for the best home cooks in America. One of 50 hopefuls will become a culinary star and one of America's "Masterchefs."


Cast:
Gordon Ramsay as Himself - Host
Charlie Ryan as Himself
Graham Elliot as Himself - Judge
Joe Bastianich as Himself - Judge
Christina Tosi as Herself - Judge
Monti Carlo as Herself
Jessie Lysiak as Herself - Contestant
Krissi Biasiello as Herself - Contestant
Derrick Fox as Himself - Contestant
Natasha Crnjac as Herself - Contestant


Watch-Free-HD     Download

Details
Name:Masterchef.US.S08E04.HDTV.x264-W4F [HDSector]
Description:
Video
ID                                       : 1
Format                                   : AVC
Format/Info                              : Advanced Video Codec
Format profile                           : [email protected]
Format settings, CABAC                   : Yes
Format settings, ReFrames                : 5 frames
Codec ID                                 : V_MPEG4/ISO/AVC
Duration                                 : 41mn 10s
Bit rate                                 : 1 239 Kbps
Width                                    : 720 pixels
Height                                   : 404 pixels
Display aspect ratio                     : 16:9
Frame rate mode                          : Constant
Frame rate                               : 23.976 (24000/1001) fps

Audio
ID                                       : 2
Format                                   : AAC
Format/Info                              : Advanced Audio Codec
Format profile                           : LC
Codec ID                                 : A_AAC
Duration                                 : 41mn 10s
Bit rate                                 : 107 Kbps
Channel(s)                               : 2 channels
Channel positions                        : Front: L R
Sampling rate                            : 48.0 KHz
Frame rate                               : 46.875 fps (1024 spf)
Compression mode                         : Lossy
Delay relative to video                  : 20ms
Stream size                              : 31.6 MiB (8%)
Language                                 : English
Default                                  : Yes
Forced                                   : No

Text
ID                                       : 3
Format                                   : UTF-8
Codec ID                                 : S_TEXT/UTF8
Codec ID/Info                            : UTF-8 Plain Text
Duration                                 : 41mn 6s
Bit rate                                 : 188 bps
Count of elements                        : 1059
Stream size                              : 56.8 KiB (0%)
Language                                 : English
Default                                  : No
Forced                                   : No


Category:TV > Hollywood
Lang:English  English
Total Size:397.23 MB
Info Hash:da3f9cb66693bf20e2ffa1795920f2ca0bf29f2c
Added By:SULTAN
Date Added:22-06-2017 16:23:11
Views:90
Hits:17

Download Torrent

Ratings:Not Yet Rated (Log in to rate it)


Tracker:
udp://tracker.coppersurfer.tk:6969/announce


File List: 


Comments

No comments still posted

Powered by 10 Hamsters v2-svn -|- Page Generated In 0.089107 secs.
-|- RSS FEED
Theme By: Nikkbu