[Login] or [Signup]
Login
Username:
Password:
[Signup]
[Recover Account]


Poll


You must be logged in to view polls



Torrent Details For "Robot Overlords 2014 x264 720p Esub BluRay Dual Audio English Hindi GOPISAHI"

Robot Overlords 2014 x264 720p Esub BluRay Dual Audio English Hindi GOPISAHI

Download this torrent | Magnet Download
Health:
Seeds: 0
Leechers: 0
Completed:
Last Checked: 18-07-2018 04:31:40
External Torrent
Update Stats
Download Magnet


Poster
No poster


Watch-Free-HD     Download

Details
Name:Robot Overlords 2014 x264 720p Esub BluRay Dual Audio English Hindi GOPISAHI
Description:
 http://www.gopisahi.pw/


Format                         : Matroska

Format version                 : Version 4 / Version 2

File size                      : 511 MiB

Duration                       : 1 h 30 min

Overall bit rate               : 793 kb/s

Movie name                     : Robot Overlords 2014 GOPISAHI


Video

Format                         : AVC

Codec ID                       : V_MPEG4/ISO/AVC

Duration                       : 1 h 30 min

Bit rate                       : 599 kb/s

Width                          : 1 280 pixels

Height                         : 536 pixels

Display aspect ratio           : 2.40:1

Frame rate mode                : Constant

Frame rate                     : 23.976 (24000/1001) FPS

Color space                    : YUV

Chroma subsampling             : 4:2:0

Bit depth                      : 8 bits

Scan type                      : Progressive

Bits/(Pixel*Frame)             : 0.036

Stream size                    : 386 MiB (75%)

Title                          : GOPISAHI

Writing library                : x264 core 155 r2901 7d0ff22


Audio #1

Format                         : AAC

Duration                       : 1 h 30 min

Bit rate                       : 96.0 kb/s

Channel(s)                     : 2 channels

Channel positions              : Front: L R

Sampling rate                  : 48.0 kHz

Frame rate                     : 46.875 FPS (1024 SPF)

Compression mode               : Lossy

Delay relative to video        : -21 ms

Stream size                    : 61.8 MiB (12%)

Title                          : GOPISAHI

Language                       : Hindi


Audio #2

Format                         : AAC

Duration                       : 1 h 30 min

Bit rate                       : 96.0 kb/s

Channel(s)                     : 2 channels

Channel positions              : Front: L R

Sampling rate                  : 48.0 kHz

Frame rate                     : 46.875 FPS (1024 SPF)

Compression mode               : Lossy

Delay relative to video        : 31 ms

Stream size                    : 61.7 MiB (12%)

Title                          : GOPISAHI

Language                       : English


Text

Language                       : English


Category:Movies > Hollywood Dub
Lang:Hindi
Total Size:511.03 MB
Info Hash:bbe855008a53a9607e7ede57dfc11f407b41abe8
Added By:gopisahi
Date Added:18-07-2018 04:31:40
Views:570
Hits:77

Download Torrent

Ratings:Not Yet Rated (Log in to rate it)


Tracker:
udp://9.rarbg.com:2740/announce


File List: 


Comments

No comments still posted

Powered by 10 Hamsters v2-svn -|- Page Generated In 0.337169 secs.
-|- RSS FEED
Theme By: Nikkbu