[Login] or [Signup]
Login
Username:
Password:
[Signup]
[Recover Account]


Poll


You must be logged in to view polls



Torrent Details For "Raazi 2018 x264 720p HD Esub Hindi GOPISAHI"

Raazi 2018 x264 720p HD Esub Hindi GOPISAHI

Download this torrent | Magnet Download
Health:
Seeds: 0
Leechers: 0
Completed:
Last Checked: 17-07-2018 02:49:08
External Torrent
Update Stats
Download Magnet


Poster
No poster


Watch-Free-HD     Download

Details
Name:Raazi 2018 x264 720p HD Esub Hindi GOPISAHI
Description:
 http://www.gopisahi.pw/

Format                         : Matroska

Format version                 : Version 4 / Version 2

File size                      : 729 MiB

Duration                       : 1 h 42 min

Overall bit rate               : 993 kb/s

Movie name                     : St. Vincent 2014 GOPISAHI


Video

Format                         : AVC

Codec ID                       : V_MPEG4/ISO/AVC

Duration                       : 1 h 42 min

Bit rate                       : 799 kb/s

Width                          : 1 272 pixels

Height                         : 688 pixels

Display aspect ratio           : 1.85:1

Frame rate mode                : Constant

Frame rate                     : 23.976 (24000/1001) FPS

Color space                    : YUV

Chroma subsampling             : 4:2:0

Bit depth                      : 8 bits

Scan type                      : Progressive

Bits/(Pixel*Frame)             : 0.038

Stream size                    : 585 MiB (80%)

Title                          : GOPISAHI

Writing library                : x264 core 148 r2708 86b7198


Audio #1

Format                         : AAC

Duration                       : 1 h 42 min

Bit rate                       : 96.0 kb/s

Channel(s)                     : 2 channels

Channel positions              : Front: L R

Sampling rate                  : 22.05 kHz

Frame rate                     : 21.533 FPS (1024 SPF)

Compression mode               : Lossy

Delay relative to video        : -92 ms

Stream size                    : 70.8 MiB (10%)

Title                          : GOPISAHI

Language                       : Hindi


Audio #2

Format                         : AAC

Duration                       : 1 h 42 min

Bit rate                       : 96.0 kb/s

Channel(s)                     : 2 channels

Channel positions              : Front: L R

Sampling rate                  : 48.0 kHz

Frame rate                     : 46.875 FPS (1024 SPF)

Compression mode               : Lossy

Delay relative to video        : -67 ms

Stream size                    : 70.4 MiB (10%)

Title                          : GOPISAHI

Language                       : English


Text

Language                       : English


Category:Movies > Hollywood Dub
Lang:Hindi
Total Size:728.63 MB
Info Hash:e38e9ed2f80a23124e47420bf56a78740b5049a9
Added By:gopisahi
Date Added:17-07-2018 02:49:08
Views:497
Hits:6

Download Torrent

Ratings:Not Yet Rated (Log in to rate it)


Tracker:
udp://9.rarbg.com:2740/announce


File List: 


Comments

No comments still posted

Powered by 10 Hamsters v2-svn -|- Page Generated In 0.302376 secs.
-|- RSS FEED
Theme By: Nikkbu