[Login] or [Signup]
Login
Username:
Password:
[Signup]
[Recover Account]


Poll


You must be logged in to view polls



Torrent Details For "Red Cliff (2008) BluRay 1080p x264 Multi Audio [Hindi-English] DD 5.1[Tamil 2.0] ESub...Hon3y"

Red Cliff (2008) BluRay 1080p x264 Multi Audio [Hindi-English] DD 5.1[Tamil 2.0] ESub...Hon3y

Download this torrent | Magnet Download
Health:
Seeds: 0
Leechers: 4
Completed: 70 
Last Checked: 18-07-2018 07:36:29
External Torrent
Update Stats
Download Magnet


Poster


iMDB
Imdb Picture Original Title: Chi bi
Title: Red Cliff
Year: 2008
Runtime: 150 minutes
Votes: 38236
Rating: 7.4/10
Language: Mandarin
Country: China, Hong Kong, Japan, Taiwan, South Korea
All Genres: Action, Adventure, Drama, History, War
Plot Outline: The first chapter of a two-part story centered on a battle fought in China's Three Kingdoms period (220-280 A.D.).
Tagline: Destiny lies in the wind.
Director: John Woo
Writing By: John Woo,Khan Chan,Cheng Kuo,Heyu Sheng,Guanzhong Luo,
Produced By: Terence Chang,Zilong Guo,Sanping Han,Xiaoei Han,Bing He,Xiaofeng Hu,Chin-Wen Huang,Tao Jiang,Wu Kebo,Woo-taek Kim,Sirena Liu,Hongshi Lu,Masato Matsuura,Rick Nathanson,Mingyu Peng,Zhong-lun Ren,Dong-ming Shi,David Tsai-Yang Tang,Zhan Teng,Lori Tilkin,Jianqiu Wang,Wei Wang,Todd Weinger,Anne Woo,John Woo,Jianshai Xu,Pengle Xu,Xiaoming Yan,Shoucheng Yang,Ju Feng Yeh,Cheri Yeung,Dong Yu,Daxing Zhang,Qiang Zhang,
Music: Tarô Iwashiro
Plot:

In 208 A.D., in the final days of the Han Dynasty, shrewd Prime Minster Cao Cao convinced the fickle Emperor Han the only way to unite all of China was to declare war on the kingdoms of Xu in the west and East Wu in the south. Thus began a military campaign of unprecedented scale, led by the Prime Minister, himself. Left with no other hope for survival, the kingdoms of Xu and East Wu formed an unlikely alliance. Numerous battles of strength and wit ensued, both on land and on water, eventually culminating in the battle of Red Cliff. During the battle, two thousand ships were burned, and the course of Chinese history was changed forever.

- Written by Anonymous

In 208 A.D., in the Han Dinasty of China, the tyrannic and greedy Prime Minster Cao Cao forces the reluctant Emperor Han to declare war against the kingdoms of Liu Bei and Sun Quan in the South of China. Cao Cao heads with a mighty army of one million soldiers and attacks Liu Bei. His advisor and war strategist Zhuge Liang heads to South in a diplomatic mission trying to convince Sun Quan to join force with Liu Bei against the powerful warlord. When Zhuge Liang meets the viceroy Zhou Yu, he succeeds in his assignment with the alliance of the two kingdoms against Cao Cao. The armies fight against each other in many battles until the final one in Red Cliff where guile, knowledge and strategy prevail.

- Written by Claudio Carvalho, Rio de Janeiro, Brazil

The first chapter of a two-part story centered on a battle fought in China's Three Kingdoms period (220-280 A.D.).

- Written by Anonymous
Cast:
Tony Chiu-Wai Leung as Zhou Yu
Takeshi Kaneshiro as Zhuge Liang
Fengyi Zhang as Cao Cao
Chen Chang as Sun Quan
Wei Zhao as Sun Shangxiang
Jun Hu as Zhao Yun
Shidô Nakamura as Gan Xing
Chiling Lin as Xiao Qiao
Yong You as Liu Bei
Yong Hou as Lu Su
Trailers:
Red Cliff
Red Cliff UK trailer


Watch-Free-HD     Download

Details
Name:Red Cliff (2008) BluRay 1080p x264 Multi Audio [Hindi-English] DD 5.1[Tamil 2.0] ESub...Hon3y
Description:

Red Cliff (2008) BluRay 1080p x264 Multi Audio [Hindi-English] DD 5.1[Tamil 2.0] ESub...Hon3y

General
Format                                   : Matroska
Format version                           : Version 4 / Version 2
File size                                : 4.60 GiB
Duration                                 : 2 h 27 min
Overall bit rate                         : 4 457 kb/s
Movie name                               : Red Cliff (2008)[email protected]

Video
Format                                   : AVC
Format/Info                              : Advanced Video Codec
Format profile                           : [email protected]
Format settings, CABAC                   : Yes
Format settings, ReFrames                : 5 frames
Codec ID                                 : V_MPEG4/ISO/AVC
Duration                                 : 2 h 27 min
Bit rate                                 : 3 336 kb/s
Width                                    : 1 920 pixels
Height                                   : 816 pixels
Display aspect ratio                     : 2.35:1
Frame rate mode                          : Constant
Frame rate                               : 23.976 (24000/1001) FPS
Color space                              : YUV
Chroma subsampling                       : 4:2:0
Bit depth                                : 8 bits
Scan type                                : Progressive
Bits/(Pixel*Frame)                       : 0.089
Stream size                              : 3.44 GiB (75%)
Title                                    : Red Cliff (2008)[email protected]

Audio 1
Format                                   : AC-3
Format/Info                              : Audio Coding 3
Format settings, Endianness              : Big
Codec ID                                 : A_AC3
Duration                                 : 2 h 27 min
Bit rate mode                            : Constant
Bit rate                                 : 448 kb/s
Channel(s)                               : 6 channels
Channel positions                        : Front: L C R, Side: L R, LFE
Sampling rate                            : 48.0 kHz
Frame rate                               : 31.250 FPS (1536 spf)
Bit depth                                : 16 bits
Compression mode                         : Lossy
Stream size                              : 474 MiB (10%)
Title                                    : [email protected]
Language                                 : Hindi
Service kind                             : Complete Main
Default                                  : Yes
Forced                                   : Yes

Audio 2
Format                                   : AC-3
Format/Info                              : Audio Coding 3
Format settings, Endianness              : Big
Codec ID                                 : A_AC3
Duration                                 : 2 h 27 min
Bit rate mode                            : Constant
Bit rate                                 : 224 kb/s
Channel(s)                               : 2 channels
Channel positions                        : Front: L R
Sampling rate                            : 48.0 kHz
Frame rate                               : 31.250 FPS (1536 spf)
Bit depth                                : 16 bits
Compression mode                         : Lossy
Stream size                              : 237 MiB (5%)
Title                                    : [email protected]
Language                                 : Tamil
Service kind                             : Complete Main
Default                                  : No

Audio 3
Format                                   : AC-3
Format/Info                              : Audio Coding 3
Format settings, Endianness              : Big
Codec ID                                 : A_AC3
Duration                                 : 2 h 27 min
Bit rate mode                            : Constant
Bit rate                                 : 448 kb/s
Channel(s)                               : 6 channels
Channel positions                        : Front: L C R, Side: L R, LFE
Sampling rate                            : 48.0 kHz
Frame rate                               : 31.250 FPS (1536 spf)
Bit depth                                : 16 bits
Compression mode                         : Lossy
Stream size                              : 474 MiB (10%)
Title                                    : [email protected]
Language                                 : English
Service kind                             : Complete Main
Default                                  : No

Subtitle
Format                                   : UTF-8
Codec ID                                 : S_TEXT/UTF8
Codec ID/Info                            : UTF-8 Plain Text
Duration                                 : 2 h 21 min
Bit rate                                 : 34 b/s
Count of elements                        : 1092
Stream size                              : 35.6 KiB (0%)
Title                                    : [email protected]
Language                                 : English
Default                                  : Yes

Chapter Menu
00:00:00.000                             : en:00:00:00.000
00:06:45.363                             : en:00:06:45.363
00:14:10.475                             : en:00:14:10.475
00:24:17.915                             : en:00:24:17.915
00:32:44.504                             : en:00:32:44.504
00:39:10.598                             : en:00:39:10.598
00:47:01.902                             : en:00:47:01.902
00:54:37.900                             : en:00:54:37.900
01:02:46.388                             : en:01:02:46.388
01:11:24.614                             : en:01:11:24.614
01:19:05.991                             : en:01:19:05.991
01:25:43.221                             : en:01:25:43.221
01:33:32.899                             : en:01:33:32.899
01:43:57.606                             : en:01:43:57.606
01:52:06.094                             : en:01:52:06.094
01:59:18.068                             : en:01:59:18.068
02:08:54.894                             : en:02:08:54.894
02:20:19.411                             : en:02:20:19.411









Category:Movies > Hollywood Dub
Lang:Hindi
Total Size:4.60 GB
Info Hash:ce72c26cc7498486b86d2ad687b80956f359ada5
Added By:Hon3y
Date Added:13-04-2017 14:24:59
Views:703
Hits:143

Download Torrent

Ratings:Not Yet Rated (Log in to rate it)


Tracker:
udp://tracker.coppersurfer.tk:6969/announce


File List: 


Comments

No comments still posted

Powered by 10 Hamsters v2-svn -|- Page Generated In 1.368577 secs.
-|- RSS FEED
Theme By: Nikkbu