[Login] or [Signup]
Login
Username:
Password:
[Signup]
[Recover Account]


Poll


You must be logged in to view polls



Torrent Details For "Officer (2018) 720p Telugu Proper True HDRip - x264 - DD5.1 - 1.3GB - ESub [MovCr]"

Officer (2018) 720p Telugu Proper True HDRip - x264 - DD5.1 - 1.3GB - ESub [MovCr]

Download this torrent | Magnet Download
Health:
Seeds: 0
Leechers: 0
Completed:
Last Checked: 13-07-2018 18:13:54
External Torrent
Update Stats
Download Magnet


Poster


iMDB
Imdb Picture Title: Officer
Year: 2018
Votes: 24
Rating: 6.5/10
Language: Telugu
Country: India
All Genres: Action
Plot Outline: Officer is a Telugu movie starring Akkineni Nagarjuna in a prominent role. It is an action crime drama directed by Ram Gopal Varma.


Director: Ram Gopal Varma
Writing By: Ram Gopal Varma,
Produced By: Pradip Khairwar,Rahul Odak,Sudheer Chandra Padiri,Siddharth Patnaik,Ram Gopal Varma,
Music: Ravi Shankar
Cast:
Nagarjuna Akkineni as
Myra Sareen as
Feroz Abbasi as
Ajay as
Trailers:
RGV's Officer Movie Trailer


Watch-Free-HD     Download

Details
Name:Officer (2018) 720p Telugu Proper True HDRip - x264 - DD5.1 - 1.3GB - ESub [MovCr]
Description:
Visit  www.movcr.com

Officer (2018) 720p Telugu Proper True HDRip - x264 - DD5.1 - 1.3GB - ESub [MovCr]


 http://www.imdb.com/title/tt8065870/

 

General
Unique ID                   : 57281950793928234215628673229003022820 (0x2B181A38E5E1F25C634E1C9D69C1E1E4)
Complete name               : www.MovCr.com - Officer (2018) 720p Telugu Proper True HDRip - x264 - DD5.1 - 1.3GB - ESub [MovCr].mkv
Format                      : Matroska
Format version              : Version 4 / Version 2
File size                   : 1.29 GiB
Duration                    : 1 h 56 min
Overall bit rate            : 1 591 kb/s
Movie name                  : www.MovCr.com
Encoded date                : UTC 2018-07-13 17:03:15
Writing application         : mkvmerge v23.0.0 ('The Bride Said No') 64-bit
Writing library             : libebml v1.3.6 + libmatroska v1.4.9

Video
ID                          : 1
Format                      : AVC
Format/Info                 : Advanced Video Codec
Format profile              : [email protected]
Format settings, CABAC      : Yes
Format settings, ReFrames   : 4 frames
Codec ID                    : V_MPEG4/ISO/AVC
Duration                    : 1 h 56 min
Bit rate                    : 1 430 kb/s
Width                       : 1 280 pixels
Height                      : 544 pixels
Display aspect ratio        : 2.35:1
Frame rate mode             : Constant
Frame rate                  : 23.976 (23976/1000) FPS
Color space                 : YUV
Chroma subsampling          : 4:2:0
Bit depth                   : 8 bits
Scan type                   : Progressive
Bits/(Pixel*Frame)          : 0.086
Stream size                 : 1.16 GiB (90%)
Title                       : www.MovCr.com
Writing library             : x264 core 155 r2901 7d0ff22
Encoding settings           : cabac=1 / ref=3 / deblock=1:0:0 / analyse=0x3:0x113 / me=hex / subme=7 / psy=1 / psy_rd=1.00:0.00 / mixed_ref=1 / me_range=16 / chroma_me=1 / trellis=1 / 8x8dct=1 / cqm=0 / deadzone=21,11 / fast_pskip=1 / chroma_qp_offset=-2 / threads=17 / lookahead_threads=2 / sliced_threads=0 / nr=0 / decimate=1 / interlaced=0 / bluray_compat=0 / constrained_intra=0 / bframes=3 / b_pyramid=2 / b_adapt=1 / b_bias=0 / direct=1 / weightb=1 / open_gop=0 / weightp=2 / keyint=240 / keyint_min=23 / scenecut=40 / intra_refresh=0 / rc_lookahead=40 / rc=2pass / mbtree=1 / bitrate=1430 / ratetol=1.0 / qcomp=0.60 / qpmin=0 / qpmax=69 / qpstep=4 / cplxblur=20.0 / qblur=0.5 / ip_ratio=1.40 / aq=1:1.00
Language                    : Telugu
Default                     : Yes
Forced                      : No

Audio
ID                          : 2
Format                      : AC-3
Format/Info                 : Audio Coding 3
Mode extension              : CM (complete main)
Format settings, Endianness : Big
Codec ID                    : A_AC3
Duration                    : 1 h 56 min
Bit rate mode               : Constant
Bit rate                    : 160 kb/s
Channel(s)                  : 6 channels
Channel positions           : Front: L C R, Side: L R, LFE
Sampling rate               : 44.1 kHz
Frame rate                  : 28.711 FPS (1536 spf)
Bit depth                   : 16 bits
Compression mode            : Lossy
Stream size                 : 133 MiB (10%)
Title                       : www.MovCr.com
Language                    : Telugu
Default                     : Yes
Forced                      : No

Text
ID                          : 3
Format                      : UTF-8
Codec ID                    : S_TEXT/UTF8
Codec ID/Info               : UTF-8 Plain Text
Duration                    : 1 h 47 min
Bit rate                    : 38 b/s
Count of elements           : 866
Stream size                 : 30.2 KiB (0%)
Title                       : www.MovCr.com
Language                    : English
Default                     : Yes
Forced                      : No



 
 
 
 
 
 
Category:Movies > Telugu
Lang:Telugu
Total Size:1.29 GB
Info Hash:b049336ac2fcd85de6de6441bb9128b37bb3c903
Added By:MAZE
Date Added:13-07-2018 18:13:54
Views:669
Hits:77

Download Torrent

Ratings:Not Yet Rated (Log in to rate it)


Tracker:
udp://tracker.coppersurfer.tk:6969/announce


File List: 


Comments

No comments still posted

Powered by 10 Hamsters v2-svn -|- Page Generated In 1.027146 secs.
-|- RSS FEED
Theme By: Nikkbu