[Login] or [Signup]
Login
Username:
Password:
[Signup]
[Recover Account]


Poll


You must be logged in to view polls



Torrent Details For "Kingsman The Secret Service 2014 x264 720p Esub BluRay Dual Audio English Hindi GOPISAHI"

Kingsman The Secret Service 2014 x264 720p Esub BluRay Dual Audio English Hindi GOPISAHI

Download this torrent | Magnet Download
Health:
Seeds: 0
Leechers: 0
Completed:
Last Checked: 12-07-2018 03:52:53
External Torrent
Update Stats
Download Magnet


Poster
No poster


Watch-Free-HD     Download

Details
Name:Kingsman The Secret Service 2014 x264 720p Esub BluRay Dual Audio English Hindi GOPISAHI
Description:
 http://www.gopisahi.pw/


Format                         : Matroska

Format version                 : Version 4 / Version 2

File size                      : 915 MiB

Duration                       : 2 h 9 min

Overall bit rate               : 989 kb/s

Movie name                     : Kingsman The Secret Service 2014 GOPISAHI


Video

Format                         : AVC

Codec ID                       : V_MPEG4/ISO/AVC

Duration                       : 2 h 8 min

Bit rate                       : 799 kb/s

Width                          : 1 280 pixels

Height                         : 536 pixels

Display aspect ratio           : 2.40:1

Frame rate mode                : Constant

Frame rate                     : 23.976 (24000/1001) FPS

Color space                    : YUV

Chroma subsampling             : 4:2:0

Bit depth                      : 8 bits

Scan type                      : Progressive

Bits/(Pixel*Frame)             : 0.049

Stream size                    : 736 MiB (80%)

Title                          : GOPISAHI

Writing library                : x264 core 148 r2708 86b7198


Audio #1

Format                         : AAC

Duration                       : 2 h 9 min

Bit rate                       : 96.0 kb/s

Channel(s)                     : 2 channels

Channel positions              : Front: L R

Sampling rate                  : 22.05 kHz

Frame rate                     : 21.533 FPS (1024 SPF)

Compression mode               : Lossy

Delay relative to video        : -92 ms

Stream size                    : 88.7 MiB (10%)

Title                          : GOPISAHI

Language                       : Hindi


Audio #2

Format                         : AAC

Duration                       : 2 h 8 min

Bit rate                       : 96.0 kb/s

Channel(s)                     : 2 channels

Channel positions              : Front: L R

Sampling rate                  : 48.0 kHz

Frame rate                     : 46.875 FPS (1024 SPF)

Compression mode               : Lossy

Delay relative to video        : -67 ms

Stream size                    : 88.5 MiB (10%)

Title                          : GOPISAHI

Language                       : English


Text

Language                       : English




Category:Movies > Hollywood Dub
Lang:Hindi
Total Size:915.29 MB
Info Hash:273e622136989e663744b4ff71828ff7a21e0d1d
Added By:gopisahi
Date Added:12-07-2018 03:52:53
Views:500
Hits:51

Download Torrent

Ratings:Not Yet Rated (Log in to rate it)


Tracker:
udp://9.rarbg.com:2740/announce


File List: 


Comments

No comments still posted

Powered by 10 Hamsters v2-svn -|- Page Generated In 0.345135 secs.
-|- RSS FEED
Theme By: Nikkbu