[Login] or [Signup]
Login
Username:
Password:
[Signup]
[Recover Account]


Poll


You must be logged in to view polls



Torrent Details For "Judaai (1997) 720p Untouched Web-HD AVC AAC - Hon3yHD"

Judaai (1997) 720p Untouched Web-HD AVC AAC - Hon3yHD

Download this torrent | Magnet Download
Health:
Seeds: 0
Leechers: 11
Completed:
Last Checked: 03-09-2018 18:32:58
External Torrent
Update Stats
Download Magnet


Poster


iMDB
Imdb Picture Title: Judaai
Year: 1997
Runtime: 167 minutes
Votes: 1574
Rating: 6.0/10
Language: Hindi
Country: India
All Genres: Drama, Family, Romance
Plot Outline: When Kajal (Sridevi) marries Raaj (Anil Kapoor), an Engineer by profession, she and her dad (Kader Khan), automatically assume that he is rich, wealthy, and corrupt. But that is not the ...
Tagline: Breaking Bonds...
Director: Raj Kanwar
Writing By: Jainendra Jain,S.V. Krishna Reddy,S.V. Krishna Reddy,
Produced By: Boney Kapoor,Surinder Kapoor,Beena Shah,Rajesh Shah,Vikram Singh,
Music: Shravan Rathod Nadeem Saifi Naresh Sharma
Plot:

When Kajal (Sridevi) marries Raaj (Anil Kapoor), an Engineer by profession, she and her dad (Kader Khan), automatically assume that he is rich, wealthy, and corrupt. But that is not the case. Raaj does not have an air-conditioner, a car, nor even a refrigerator. This infuriates Kajal, and in her mind she creates a separate world, where she is rich, wealthy, has several cars, and lives lavishly in a big bungalow. Even with birth of two children, and several years of marriage, does not change Kajal. When Jahnvi (Urmilla Matondkar) Raaj's boss's (Saeed Jaffrey) daughter comes from overseas into their lives, she falls for the honest Raaj. After meeting the greedy Kajal, Jahnvi offers a large sum of money in exchange of Raaj. And Kajal, seeing this as her opportunity to wealth and a easy life, accepts, not knowing that this decision will change her life forever.

- Written by rAjOo ([email protected])
Cast:
Anil Kapoor as Raj Verma
Sridevi as Kaajal Verma
Urmila Matondkar as Jhanhvi Sahni
Paresh Rawal as Hasmukhlal
Saeed Jaffrey as Mr. Sahni
Farida Jalal as Kaajal's Mother
Johnny Lever as Hiralal (Hari)
Upasna Singh as Hasmukhlal's Daughter / Wife
Mehmood Jr. as Hiralal's Friend
Master Omkar Kapoor as


Watch-Free-HD     Download

Details
Name:Judaai (1997) 720p Untouched Web-HD AVC AAC - Hon3yHD
Description:
Judaai (1997) 720p Untouched Web-HD AVC AAC - Hon3yHD


Format                      : Matroska
File size                   : 2.37 GiB
Duration                    : 2 h 40 min
Overall bit rate            : 2 111 kb/s

Video
ID                          : 1
Format                      : AVC
Format/Info                 : Advanced Video Codec
Format profile              : [email protected]
Format settings, CABAC      : Yes
Format settings, ReFrames   : 4 frames
Codec ID                    : V_MPEG4/ISO/AVC
Duration                    : 2 h 40 min
Bit rate                    : 1 981 kb/s
Nominal bit rate            : 2 500 kb/s
Width                       : 1 280 pixels
Height                      : 720 pixels
Display aspect ratio        : 16:9
Frame rate mode             : Constant
Frame rate                  : 25.000 FPS
Stream size                 : 2.22 GiB (94%)

Audio
ID                          : 2
Format                      : AAC
Format/Info                 : Advanced Audio Codec
Format profile              : LC
Codec ID                    : A_AAC
Duration                    : 2 h 40 min
Bit rate                    : 128 kb/s
Channel(s)                  : 2 channels
Channel positions           : Front: L R
Sampling rate               : 44.1 kHz
Frame rate                  : 43.066 FPS (1024 spf)
Stream size                 : 147 MiB (6%)


                         
Category:Movies > Bollywood
Lang:Hindi
Total Size:2.37 GB
Info Hash:febecc35ef56b7ece172486e5eb3892aa24962a9
Added By:Hon3y
Date Added:13-04-2017 14:04:53
Views:600
Hits:223

Download Torrent

Ratings:Not Yet Rated (Log in to rate it)


Tracker:
udp://tracker.coppersurfer.tk:6969/announce


File List: 


Comments

<< Previous      Next >>
1 - 1

[Report] Posted: 06-11-2017 at 13:24:38
wiki



Uploaded: 0.00 B
Downloaded: 0.00 B
Ratio: ---

VGOOD EFFECT Brillant WORk THAnksALOT

1 - 1
<< Previous      Next >>


Powered by 10 Hamsters v2-svn -|- Page Generated In 2.124339 secs.
-|- RSS FEED
Theme By: Nikkbu