[Login] or [Signup]
Login
Username:
Password:
[Signup]
[Recover Account]


Poll


You must be logged in to view polls



Torrent Details For "Gods of Egypt 2016 x264 720p Esub BluRay Dual Audio English Hindi GOPISAHI"

Gods of Egypt 2016 x264 720p Esub BluRay Dual Audio English Hindi GOPISAHI

Download this torrent | Magnet Download
Health:
Seeds: 425
Leechers: 413
Completed: 1,126 
Last Checked: 11-07-2018 18:53:10
External Torrent
Update Stats
Download Magnet


Poster
No poster


Watch-Free-HD     Download

Details
Name:Gods of Egypt 2016 x264 720p Esub BluRay Dual Audio English Hindi GOPISAHI
Description:
 http://www.gopisahi.pw/


Format                         : Matroska

Format version                 : Version 4 / Version 2

File size                      : 1 022 MiB

Duration                       : 2 h 7 min

Overall bit rate               : 1 124 kb/s

Movie name                     : Gods of Egypt 2016 GOPISAHI


Video

Format                         : AVC

Codec ID                       : V_MPEG4/ISO/AVC

Duration                       : 2 h 7 min

Bit rate                       : 900 kb/s

Width                          : 1 280 pixels

Height                         : 534 pixels

Display aspect ratio           : 2.40:1

Original display aspect ratio  : 2.40:1

Frame rate mode                : Constant

Frame rate                     : 23.976 (24000/1001) FPS

Color space                    : YUV

Chroma subsampling             : 4:2:0

Bit depth                      : 8 bits

Scan type                      : Progressive

Bits/(Pixel*Frame)             : 0.055

Stream size                    : 818 MiB (80%)

Title                          : GOPISAHI

Writing library                : x264 core 148


Audio #1

Format                         : AAC

Duration                       : 2 h 7 min

Bit rate                       : 125 kb/s

Channel(s)                     : 2 channels

Channel positions              : Front: L R

Sampling rate                  : 48.0 kHz

Frame rate                     : 46.875 FPS (1024 SPF)

Compression mode               : Lossy

Delay relative to video        : -43 ms

Stream size                    : 114 MiB (11%)

Title                          : GOPISAHI

Language                       : English


Audio #2

Format                         : AAC

Duration                       : 2 h 6 min

Bit rate                       : 96.0 kb/s

Channel(s)                     : 2 channels

Channel positions              : Front: L R

Sampling rate                  : 48.0 kHz

Frame rate                     : 46.875 FPS (1024 SPF)

Compression mode               : Lossy

Delay relative to video        : 1 s 957 ms

Stream size                    : 87.5 MiB (9%)

Title                          : GOPISAHI

Language                       : Hindi


Text

Language                       : English


Category:Movies > Hollywood Dub
Lang:Hindi
Total Size:1,021.73 MB
Info Hash:783f12ada1dc064ef76370d5a53138b8aa545651
Added By:Unknown
Date Added:11-07-2018 04:38:26
Views:1,032
Hits:269

Download Torrent

Ratings:Not Yet Rated (Log in to rate it)


Tracker:
udp://9.rarbg.com:2740/announce


File List: 


Comments

No comments still posted

Powered by 10 Hamsters v2-svn -|- Page Generated In 0.280707 secs.
-|- RSS FEED
Theme By: Nikkbu