[Login] or [Signup]
Login
Username:
Password:
[Signup]
[Recover Account]


Poll


You must be logged in to view polls



Torrent Details For "Mummy (Mummy Save Me) (2018) 720p Hindi Dubbed HD x264 AAC 700MB [MovCr]"

Mummy (Mummy Save Me) (2018) 720p Hindi Dubbed HD x264 AAC 700MB [MovCr]

Download this torrent | Magnet Download
Health:
Seeds: 2,004
Leechers: 1,400
Completed: 3,705 
Last Checked: 08-07-2018 14:22:11
External Torrent
Update Stats
Download Magnet


Poster


iMDB
Imdb Picture Title: Mummy Save Me
Year: 2016
Runtime: 131 minutes
Votes: 20
Rating: 7.5/10
Language: Kannada
Country: India
All Genres: Horror
Plot Outline: An emotional horror film which revolves around 7 months pregnant mother and her 6 year old daughter.
Tagline: Save Me
Director: H. Lohith

Produced By: K. Ravikumar,
Music: B. Ajaneesh Loknath
Plot:

An emotional horror film which revolves around 7 months pregnant mother and her 6 year old daughter.


Cast:
Priyanka Upendra as Priya
Yuvina Parthavi as Kriya


Watch-Free-HD     Download

Details
Name:Mummy (Mummy Save Me) (2018) 720p Hindi Dubbed HD x264 AAC 700MB [MovCr]
Description:
Visit Our Site  www.movcr.com


 http://www.imdb.com/title/tt6303464/

 

General
Unique ID                   : 137679117798644566666219527654299881749 (0x67940897F25B448FD97A04E230D35115)
Complete name               : www.MovCr.com - Mummy (Mummy Save Me) (2018) 720p Hindi Dubbed HD x264 AAC 700MB [MovCr].mkv
Format                      : Matroska
Format version              : Version 4 / Version 2
File size                   : 640 MiB
Duration                    : 2 h 0 min
Overall bit rate            : 742 kb/s
Movie name                  : www.MovCr.com
Encoded date                : UTC 2018-07-07 17:41:08
Writing application         : mkvmerge v23.0.0 ('The Bride Said No') 64-bit
Writing library             : libebml v1.3.6 + libmatroska v1.4.9

Video
ID                          : 1
Format                      : AVC
Format/Info                 : Advanced Video Codec
Format profile              : [email protected]
Format settings, CABAC      : Yes
Format settings, ReFrames   : 3 frames
Codec ID                    : V_MPEG4/ISO/AVC
Duration                    : 2 h 0 min
Bit rate                    : 614 kb/s
Width                       : 1 280 pixels
Height                      : 720 pixels
Display aspect ratio        : 16:9
Frame rate mode             : Constant
Frame rate                  : 25.000 FPS
Color space                 : YUV
Chroma subsampling          : 4:2:0
Bit depth                   : 8 bits
Scan type                   : Progressive
Bits/(Pixel*Frame)          : 0.027
Stream size                 : 530 MiB (83%)
Title                       : www.MovCr.com
Default                     : Yes
Forced                      : No
Color range                 : Limited
Color primaries             : BT.709
Transfer characteristics    : BT.709
Matrix coefficients         : BT.709

Audio
ID                          : 2
Format                      : AAC
Format/Info                 : Advanced Audio Codec
Format profile              : LC
Codec ID                    : A_AAC
Duration                    : 2 h 0 min
Bit rate                    : 126 kb/s
Channel(s)                  : 2 channels
Channel positions           : Front: L R
Sampling rate               : 44.1 kHz
Frame rate                  : 43.066 FPS (1024 spf)
Compression mode            : Lossy
Stream size                 : 108 MiB (17%)
Title                       : www.MovCr.com
Language                    : Hindi
Default                     : Yes
Forced                      : No



 
 
 
 
 
 
 
 
 
Category:Movies > South Dub
Lang:Hindi
Total Size:640.08 MB
Info Hash:b1509796695cd7a9d258b50ed446721c800cd70f
Added By:MAZE
Date Added:07-07-2018 18:49:19
Views:1,361
Hits:178

Download Torrent

Ratings:Not Yet Rated (Log in to rate it)


Tracker:
udp://tracker.coppersurfer.tk:6969/announce


File List: 


Comments

No comments still posted

Powered by 10 Hamsters v2-svn -|- Page Generated In 1.329076 secs.
-|- RSS FEED
Theme By: Nikkbu