[Login] or [Signup]
Login
Username:
Password:
[Signup]
[Recover Account]


Poll


You must be logged in to view polls



Torrent Details For "Dynamic (Vil Ambu) (2018) 720p Hindi Dubbed HD x264 AAC 850MB [MovCr]"

Dynamic (Vil Ambu) (2018) 720p Hindi Dubbed HD x264 AAC 850MB [MovCr]

Download this torrent | Magnet Download
Health:
Seeds: 294
Leechers: 2,210
Completed: 72 
Last Checked: 07-07-2018 07:29:35
External Torrent
Update Stats
Download Magnet


Poster


iMDB
Imdb Picture Title: Vil Ambu
Year: 2016
Runtime: 137 minutes
Votes: 178
Rating: 6.9/10
Language: Tamil
Country: India
All Genres: Action, Thriller
Plot Outline: Vil Ambu is a journey of two characters and talks about how humans are responsible for each other's loss or gain. The story is about how the loss of one person becomes the gain of the other.


Director: Ramesh Subramaniam
Writing By: Ramesh Subramaniam,
Produced By: Nandakumar,Thai Saravanan,Suseenthiran,
Music: Navin
Cast:
Harish Kalyan as Arul
Sri as Karthik
Chandini as Kanakavalli
Yogi Babu as Honest
Harish Uthaman as Siva
Mathan Kumar as
Samskruthy Shenoy as Poonkodi
Nisha Krishnan as Kavya
Nandakumar as
Srushti Dange as Nithya


Watch-Free-HD     Download

Details
Name:Dynamic (Vil Ambu) (2018) 720p Hindi Dubbed HD x264 AAC 850MB [MovCr]
Description:
Visit Our Site  www.movcr.com

Dynamic (Vil Ambu) (2018) 720p Hindi Dubbed HD x264 AAC 850MB [MovCr]


 http://www.imdb.com/title/tt5476166/

 

General
Unique ID                   : 330015507064274934775561230767829291951 (0xF846ACBA3C30F8F0FCBCF2E5F6F813AF)
Complete name               : www.MovCr.com - Dynamic (Vil Ambu) (2018) 720p Hindi Dubbed HD x264 AAC 850MB [MovCr].mkv
Format                      : Matroska
Format version              : Version 4 / Version 2
File size                   : 870 MiB
Duration                    : 2 h 5 min
Overall bit rate            : 969 kb/s
Movie name                  : www.MovCr.com
Encoded date                : UTC 2018-07-07 05:12:06
Writing application         : mkvmerge v23.0.0 ('The Bride Said No') 64-bit
Writing library             : libebml v1.3.6 + libmatroska v1.4.9

Video
ID                          : 1
Format                      : AVC
Format/Info                 : Advanced Video Codec
Format profile              : [email protected]
Format settings, CABAC      : Yes
Format settings, ReFrames   : 3 frames
Codec ID                    : V_MPEG4/ISO/AVC
Duration                    : 2 h 5 min
Bit rate                    : 841 kb/s
Width                       : 1 280 pixels
Height                      : 720 pixels
Display aspect ratio        : 16:9
Frame rate mode             : Constant
Frame rate                  : 24.000 FPS
Color space                 : YUV
Chroma subsampling          : 4:2:0
Bit depth                   : 8 bits
Scan type                   : Progressive
Bits/(Pixel*Frame)          : 0.038
Stream size                 : 756 MiB (87%)
Title                       : www.MovCr.com
Default                     : Yes
Forced                      : No
Color range                 : Limited
Color primaries             : BT.709
Transfer characteristics    : BT.709
Matrix coefficients         : BT.709

Audio
ID                          : 2
Format                      : AAC
Format/Info                 : Advanced Audio Codec
Format profile              : LC
Codec ID                    : A_AAC
Duration                    : 2 h 5 min
Bit rate                    : 126 kb/s
Channel(s)                  : 2 channels
Channel positions           : Front: L R
Sampling rate               : 44.1 kHz
Frame rate                  : 43.066 FPS (1024 spf)
Compression mode            : Lossy
Stream size                 : 113 MiB (13%)
Title                       : www.MovCr.com
Language                    : Hindi
Default                     : Yes
Forced                      : No



 
 
 
 
 
 
 
 
 
 
Category:Movies > South Dub
Lang:Hindi
Total Size:870.41 MB
Info Hash:3417d5c5daca513015e9f3f346aa28292cf6807f
Added By:MAZE
Date Added:07-07-2018 06:23:14
Views:1,860
Hits:143

Download Torrent

Ratings:Not Yet Rated (Log in to rate it)


Tracker:
udp://tracker.coppersurfer.tk:6969/announce


File List: 


Comments

No comments still posted

Powered by 10 Hamsters v2-svn -|- Page Generated In 1.653269 secs.
-|- RSS FEED
Theme By: Nikkbu