[Login] or [Signup]
Login
Username:
Password:
[Signup]
[Recover Account]


Poll


You must be logged in to view polls



Torrent Details For "Super Troopers 2 2018 1080p BluRay x264 DTS [MW]"

Super Troopers 2 2018 1080p BluRay x264 DTS [MW]

Download this torrent | Magnet Download
Health:
Seeds: 248
Leechers: 162
Completed: 715 
Last Checked: 06-07-2018 22:19:13
External Torrent
Update Stats
Download Magnet


Poster
No poster


Watch-Free-HD     Download

Details
Name:Super Troopers 2 2018 1080p BluRay x264 DTS [MW]
Description:

 


General
Format                                   : Matroska
Format version                           : Version 4 / Version 2
File size                                : 2.77 GiB
Duration                                 : 1 h 39 min
Overall bit rate                         : 3 991 kb/s

Video
ID                                       : 1
Format                                   : AVC
Format/Info                              : Advanced Video Codec
Format profile                           : [email protected]
Format settings                          : CABAC / 5 Ref Frames
Format settings, CABAC                   : Yes
Format settings, RefFrames               : 5 frames
Codec ID                                 : V_MPEG4/ISO/AVC
Duration                                 : 1 h 39 min
Bit rate                                 : 2 500 kb/s
Width                                    : 1 920 pixels
Height                                   : 1 036 pixels
Display aspect ratio                     : 1.85:1
Frame rate mode                          : Constant
Frame rate                               : 23.976 (24000/1001) FPS
Color space                              : YUV
Chroma subsampling                       : 4:2:0
Bit depth                                : 8 bits
Scan type                                : Progressive
Bits/(Pixel*Frame)                       : 0.052
Stream size                              : 1.72 GiB (62%)
Writing library                          : x264 core 155 r2901 7d0ff22
Default                                  : Yes
Forced                                   : No

Audio
ID                                       : 2
Format                                   : DTS
Format/Info                              : Digital Theater Systems
Codec ID                                 : A_DTS
Duration                                 : 1 h 39 min
Bit rate mode                            : Constant
Bit rate                                 : 1 509 kb/s
Channel(s)                               : 6 channels
Channel positions                        : Front: L C R, Side: L R, LFE
Sampling rate                            : 48.0 kHz
Frame rate                               : 93.750 FPS (512 SPF)
Bit depth                                : 24 bits
Compression mode                         : Lossy
Stream size                              : 1.05 GiB (38%)
Language                                 : English
Default                                  : Yes
Forced                                   : No


           

Category:Movies > 1080P Bluray
Lang:English  English
Total Size:2.77 GB
Info Hash:c7b789daf9927fc3e5a9cda41915bda7f9b7dfa4
Added By:Freaky
Date Added:06-07-2018 13:42:56
Views:201
Hits:8

Download Torrent

Ratings:Not Yet Rated (Log in to rate it)


Tracker:
udp://tracker.coppersurfer.tk:6969/announce


File List: 


Comments

No comments still posted

Powered by 10 Hamsters v2-svn -|- Page Generated In 3.615469 secs.
-|- RSS FEED
Theme By: Nikkbu