[Login] or [Signup]
Login
Username:
Password:
[Signup]
[Recover Account]


Poll


You must be logged in to view polls



Torrent Details For "Paisa Vasool (2017) 720p Uncut HDRip x264 [Dual Audio]-[Hindi (Line) + Telugu] -1.5GB [MovCr]"

Paisa Vasool (2017) 720p Uncut HDRip x264 [Dual Audio]-[Hindi (Line) + Telugu] -1.5GB [MovCr]

Download this torrent | Magnet Download
Health:
Seeds: 72
Leechers: 21
Completed: 9,508 
Last Checked: 04-08-2018 03:33:17
External Torrent
Update Stats
Download Magnet


Poster


iMDB
Imdb Picture Title: Paisa Vasool
Year: 2017
Runtime: 138 minutes
Votes: 257
Rating: 4.7/10
Language: Telugu, Telugu
Country: India
All Genres: Action, Drama
Plot Outline: A local officer recruits a deadly gangster to take down a crime lord.
Director: Puri Jagannadh
Writing By: Puri Jagannadh,A. Sreedhar,
Produced By: Rengarajan Jaiprakash,Anne Ravi,Anand Prasad V.,
Music: Anoop Rubens
Cast:
Nandamuri Bala Krishna as
Shriya Saran as
Vikramjeet Virk as Bob Marley
Musskan Sethi as
Kyra Dutt as
Ali as


Watch-Free-HD     Download

Details
Name:Paisa Vasool (2017) 720p Uncut HDRip x264 [Dual Audio]-[Hindi (Line) + Telugu] -1.5GB [MovCr]
Description:
Paisa Vasool (2017) 720p Uncut HDRip x264 [Dual Audio]-[Hindi (Line) + Telugu] -1.5GB [MovCr]

Enjoy Paisa Vasool In Uncut HDRip With Clean Hindi Audio

Thanks To DesireMovies For Audio...And Please Seedback After Download

Visit Our Site  www.movcr.com

Plot :
A local officer recruits a deadly gangster to take down a crime lord.


 http://www.imdb.com/title/tt7188742/

 

General
Unique ID                   : 228223471569518107109038595747437878159 (0xABB23DE6000C7BF5A04BECF838541B8F)
Complete name               : www.MovCr.com - Paisa Vasool (2017) 720p Uncut HDRip x264 [Dual Audio]-[Hindi (Line) + Telugu] -1.5GB [MovCr].mkv
Format                      : Matroska
Format version              : Version 4 / Version 2
File size                   : 1.51 GiB
Duration                    : 2 h 12 min
Overall bit rate            : 1 631 kb/s
Movie name                  : www.MovCr.com
Encoded date                : UTC 2018-07-06 12:30:57
Writing application         : mkvmerge v23.0.0 ('The Bride Said No') 64-bit
Writing library             : libebml v1.3.6 + libmatroska v1.4.9

Video
ID                          : 1
Format                      : AVC
Format/Info                 : Advanced Video Codec
Format profile              : [email protected]
Format settings, CABAC      : Yes
Format settings, ReFrames   : 4 frames
Codec ID                    : V_MPEG4/ISO/AVC
Duration                    : 2 h 12 min
Bit rate                    : 1 341 kb/s
Width                       : 1 280 pixels
Height                      : 544 pixels
Display aspect ratio        : 2.35:1
Frame rate mode             : Constant
Frame rate                  : 25.000 FPS
Color space                 : YUV
Chroma subsampling          : 4:2:0
Bit depth                   : 8 bits
Scan type                   : Progressive
Bits/(Pixel*Frame)          : 0.077
Stream size                 : 1.24 GiB (82%)
Title                       : www.MovCr.com
Writing library             : x264 core 112
Encoding settings           : cabac=1 / ref=2 / deblock=1:0:0 / analyse=0x1:0x111 / me=hex / subme=6 / psy=1 / psy_rd=1.00:0.00 / mixed_ref=0 / me_range=16 / chroma_me=1 / trellis=0 / 8x8dct=0 / cqm=0 / deadzone=21,11 / fast_pskip=1 / chroma_qp_offset=-2 / threads=12 / sliced_threads=0 / nr=0 / decimate=1 / interlaced=0 / constrained_intra=0 / bframes=2 / b_pyramid=2 / b_adapt=1 / b_bias=0 / direct=1 / weightb=0 / open_gop=0 / weightp=2 / keyint=250 / keyint_min=24 / scenecut=40 / intra_refresh=0 / rc_lookahead=40 / rc=abr / mbtree=1 / bitrate=1341 / ratetol=1.0 / qcomp=0.60 / qpmin=3 / qpmax=51 / qpstep=4 / ip_ratio=1.40 / aq=1:1.00
Language                    : English
Default                     : Yes
Forced                      : No
Color range                 : Limited
Color primaries             : BT.709
Transfer characteristics    : BT.709
Matrix coefficients         : BT.709

Audio #1
ID                          : 2
Format                      : AAC
Format/Info                 : Advanced Audio Codec
Format profile              : LC
Codec ID                    : A_AAC
Duration                    : 2 h 12 min
Bit rate                    : 128 kb/s
Channel(s)                  : 2 channels
Channel positions           : Front: L R
Sampling rate               : 48.0 kHz
Frame rate                  : 46.875 FPS (1024 spf)
Compression mode            : Lossy
Stream size                 : 121 MiB (8%)
Title                       : www.MovCr.com
Language                    : Telugu
Default                     : No
Forced                      : No

Audio #2
ID                          : 3
Format                      : AAC
Format/Info                 : Advanced Audio Codec
Format profile              : LC
Codec ID                    : A_AAC
Duration                    : 2 h 12 min
Bit rate                    : 160 kb/s
Channel(s)                  : 2 channels
Channel positions           : Front: L R
Sampling rate               : 44.1 kHz
Frame rate                  : 43.066 FPS (1024 spf)
Compression mode            : Lossy
Stream size                 : 152 MiB (10%)
Title                       : www.MovCr.com
Language                    : Hindi
Default                     : Yes
Forced                      : Yes



 
 
 
 
 
 
 
 
 
 
 
 
Category:Movies > South Dub
Lang:Hindi
Total Size:1.51 GB
Info Hash:5271767d2089b11c9db5aa3628f23da4f428fee2
Added By:MAZE
Date Added:06-07-2018 13:40:51
Views:1,024
Hits:198

Download Torrent

Ratings:Not Yet Rated (Log in to rate it)


Tracker:
udp://tracker.coppersurfer.tk:6969/announce


File List: 


Comments

No comments still posted

Powered by 10 Hamsters v2-svn -|- Page Generated In 1.903851 secs.
-|- RSS FEED
Theme By: Nikkbu