[Login] or [Signup]
Login
Username:
Password:
[Signup]
[Recover Account]


Poll


You must be logged in to view polls



Torrent Details For "Curse of Cactus Jack (2017) HDRip-SatanTV"

Curse of Cactus Jack (2017) HDRip-SatanTV

Download this torrent | Magnet Download
Health:
Seeds: 0
Leechers: 1
Completed:
Last Checked: 06-07-2018 11:58:52
External Torrent
Update Stats
Download Magnet


Poster


iMDB
Imdb Picture Title: Curse of Cactus Jack
Year: 2017
Runtime: 84 minutes
Votes: 13
Rating: 6.1/10
Language: English
Country: USA
All Genres: Family
Plot Outline: In this scary-fun adventure, two kids are bequeathed a map and the keys to the legendary gold mine of Cactus Jack. Deciphering through a series of riddles and clues, our two gumshoe detectives unearth the entrance to the infamous labyrinth of tunnels and traps. But when the malevolent mine unleashes its mechanical booby traps, it's up to Billy and his spunky little sister to prevail.


Tagline: Two gumshoe detectives find a lost treasure.
Director: Craig McMahon
Writing By: Craig McMahon,John Waldron,
Produced By: Craig McMahon,David Smith,John Waldron,
Cast:
Karen Berkowitz as Saloon Barmaid
Mitch Etter as Grandpa
Al Fossenkemper as Cowboy 1
Glen Gold as Gustav / Cactus Jack
Billy Kitchen as Billy
Katie Kitchen as Katie
Robert Lansdown as Cowboy 3
Chaz Lee as Outlaw 1
James Lovin as Outlaw 2
Tony Pistilli as Cowboy 2


Watch-Free-HD     Download

Details
Name:Curse of Cactus Jack (2017) HDRip-SatanTV
Description:


General
Complete name                            Curse of Cactus Jack (2017) HDRip-SatanTV.mp4
Format                                   : MPEG-4
Format profile                           : Base Media
Codec ID                                 : isom (isom/iso2/avc1/mp41)
File size                                : 820 MiB
Duration                                 : 1 h 21 min
Overall bit rate                         : 1 403 kb/s
Writing application                      : Lavf57.83.100

Video
ID                                       : 1
Format                                   : AVC
Format/Info                              : Advanced Video Codec
Format profile                           : [email protected]
Format settings                          : CABAC / 5 Ref Frames
Format settings, CABAC                   : Yes
Format settings, RefFrames               : 5 frames
Codec ID                                 : avc1
Codec ID/Info                            : Advanced Video Coding
Duration                                 : 1 h 21 min
Bit rate                                 : 1 280 kb/s
Width                                    : 1 280 pixels
Height                                   : 720 pixels
Display aspect ratio                     : 16:9
Frame rate mode                          : Constant
Frame rate                               : 29.970 (30000/1001) FPS
Color space                              : YUV
Chroma subsampling                       : 4:2:0
Bit depth                                : 8 bits
Scan type                                : Progressive
Bits/(Pixel*Frame)                       : 0.046
Stream size                              : 741 MiB (90%)
Writing library                          : x264 core 148 r2643 5c65704
Encoding settings                        : cabac=1 / ref=5 / deblock=1:0:0 / analyse=0x3:0x113 / me=hex / subme=7 / psy=1 / psy_rd=1.00:0.00 / mixed_ref=1 / me_range=16 / chroma_me=1 / trellis=1 / 8x8dct=1 / cqm=0 / deadzone=21,11 / fast_pskip=1 / chroma_qp_offset=-2 / threads=8 / lookahead_threads=8 / sliced_threads=1 / slices=8 / nr=0 / decimate=1 / interlaced=0 / bluray_compat=0 / constrained_intra=0 / bframes=0 / weightp=2 / keyint=250 / keyint_min=25 / scenecut=40 / intra_refresh=0 / rc=abr / mbtree=0 / bitrate=1280 / ratetol=1.0 / qcomp=0.60 / qpmin=0 / qpmax=69 / qpstep=4 / ip_ratio=1.40 / aq=1:1.00

Audio
ID                                       : 2
Format                                   : AAC
Format/Info                              : Advanced Audio Codec
Format profile                           : LC
Codec ID                                 : mp4a-40-2
Duration                                 : 1 h 21 min
Duration_LastFrame                       : 1 ms
Bit rate mode                            : Constant
Bit rate                                 : 128 kb/s
Channel(s)                               : 2 channels
Channel positions                        : Front: L R
Sampling rate                            : 48.0 kHz
Frame rate                               : 46.875 FPS (1024 SPF)
Compression mode                         : Lossy
Stream size                              : 74.8 MiB (9%)
Language                                 : English
Default                                  : Yes
Alternate group                          : 1






Category:Movies > HDRips
Lang:English  English
Total Size:820.21 MB
Info Hash:ba36872ead2e44046ce50a251acc24ec58a7b3d9
Added By:satan2000
Date Added:06-07-2018 11:05:57
Views:180
Hits:16

Download Torrent

Ratings:Not Yet Rated (Log in to rate it)

  


Tracker:
udp://tracker.coppersurfer.tk:6969/announce


File List: 


Comments

No comments still posted

Powered by 10 Hamsters v2-svn -|- Page Generated In 1.942679 secs.
-|- RSS FEED
Theme By: Nikkbu