[Login] or [Signup]
Login
Username:
Password:
[Signup]
[Recover Account]


Poll


You must be logged in to view polls



Torrent Details For "Fanaa 2006 Hindi 720p BluRay x264 AAC 5.1 Esub -Hon3y"

Fanaa 2006 Hindi 720p BluRay x264 AAC 5.1 Esub -Hon3y

Download this torrent | Magnet Download
Health:
Seeds: 0
Leechers: 2
Completed: 718 
Last Checked: 21-10-2018 20:07:36
External Torrent
Update Stats
Download Magnet


Poster


Watch-Free-HD     Download

Details
Name:Fanaa 2006 Hindi 720p BluRay x264 AAC 5.1 Esub -Hon3y
Description:

Fanaa 2006 Hindi 720p BluRay x264 AAC 5.1 Esub -Hon3y

Source: BD50 @ DRS. Many Thanks <3

Format                                   : Matroska
Format version                           : Version 4 / Version 2
File size                                : 1.64 GiB
Duration                                 : 2 h 48 min
Overall bit rate                         : 1 394 kb/s
Movie name                               : [email protected] @ Hon3y

Video
ID                                       : 1
Format                                   : AVC
Format/Info                              : Advanced Video Codec
Format profile                           : [email protected]
Format settings, CABAC                   : Yes
Format settings, ReFrames                : 8 frames
Codec ID                                 : V_MPEG4/ISO/AVC
Duration                                 : 2 h 48 min
Bit rate                                 : 1 200 kb/s
Width                                    : 1 280 pixels
Height                                   : 544 pixels
Display aspect ratio                     : 2.35:1
Frame rate mode                          : Constant
Frame rate                               : 24.000 FPS


Audio
ID                                       : 2
Format                                   : AAC
Format/Info                              : Advanced Audio Codec
Format profile                           : LC
Codec ID                                 : A_AAC
Duration                                 : 2 h 48 min
Bit rate                                 : 192 kb/s
Channel(s)                               : 6 channels
Channel positions                        : Front: L C R, Side: L R, LFE
Sampling rate                            : 48.0 kHz
Frame rate                               : 46.875 FPS (1024 spf)
Compression mode                         : Lossy
Delay relative to video                  : 9 ms
Stream size                              : 231 MiB (14%)
Language                                 : Hindi
Default                                  : Yes
Forced                                   : No

Text
ID                                       : 3
Format                                   : UTF-8
Codec ID                                 : S_TEXT/UTF8
Codec ID/Info                            : UTF-8 Plain Text
Duration                                 : 2 h 46 min
Bit rate                                 : 52 b/s
Count of elements                        : 1774
Stream size                              : 64.0 KiB (0%)
Language                                 : English
Default                                  : Yes
Forced                                   : No

Menu
00:00:00.000                             : en:Chapter 01
00:02:39.666                             : en:Chapter 02
00:05:55.125                             : en:Chapter 03
00:09:56.625                             : en:Chapter 04
00:16:05.041                             : en:Chapter 05
00:20:40.958                             : en:Chapter 06
00:27:59.375                             : en:Chapter 07
00:37:31.875                             : en:Chapter 08
00:42:49.458                             : en:Chapter 09
00:54:31.791                             : en:Chapter 10
01:00:06.791                             : en:Chapter 11
01:05:53.708                             : en:Chapter 12
01:18:25.166                             : en:Chapter 13
01:25:49.416                             : en:Chapter 14
01:32:24.041                             : en:Chapter 15
01:40:01.916                             : en:Chapter 16
01:47:06.583                             : en:Chapter 17
01:56:41.083                             : en:Chapter 18
02:00:22.958                             : en:Chapter 19
02:15:29.000                             : en:Chapter 20
02:20:13.416                             : en:Chapter 21
02:29:44.291                             : en:Chapter 22
02:46:05.541                             : en:Chapter 23
02:48:48.958                             : en:Chapter 24

             
Category:Movies > Bollywood
Lang:Hindi
Total Size:1.64 GB
Info Hash:822b68b43fa4beb839505096e55e73b429561752
Added By:Hon3y
Date Added:21-06-2017 01:48:15
Views:491
Hits:214

Download Torrent

Ratings:Not Yet Rated (Log in to rate it)


Tracker:
udp://tracker.coppersurfer.tk:6969/announce


File List: 


Comments

No comments still posted

Powered by 10 Hamsters v2-svn -|- Page Generated In 1.024800 secs.
-|- RSS FEED
Theme By: Nikkbu