[Login] or [Signup]
Login
Username:
Password:
[Signup]
[Recover Account]


Poll


You must be logged in to view polls



Torrent Details For "Escape Plan (Escape from Ensenada) (2018) Hindi Dubbed 1080p HD x264 AAC 700MB [MovCr]"

Escape Plan (Escape from Ensenada) (2018) Hindi Dubbed 1080p HD x264 AAC 700MB [MovCr]

Download this torrent | Magnet Download
Health:
Seeds: 877
Leechers: 420
Completed: 6,339 
Last Checked: 06-07-2018 18:26:55
External Torrent
Update Stats
Download Magnet


Poster


iMDB
Imdb Picture Original Title: California Dreaming
Title: Escape from Ensenada
Year: 2017
Runtime: 83 minutes
Votes: 399
Rating: 5.8/10
Language: English, Spanish, Afrikaans
Country: USA
All Genres: Action, Adventure, Comedy, Crime, Thriller
Plot Outline: It's "TAKEN" with girls when two California College students are kidnapped by a vicious cartel led by a former INTERPOL agent while on vacation in Mexico. Jenna, a foreign exchange student from South Africa with milita-member parents, and Lyndsey, the spoiled daughter of a wealthy banker, find themselves at the mercy of a former Interpol Agent from the United States now living in Mexico and his vicious adopted son. After a deal for their freedom goes bad, Jenna uses the skills she learned from growing up in South Africa to break her and Lyndsey free, leaving a trail of cartel bodies behind them in the process. Written by Jaguar Motion Pictures


Director: Brandon Slagle
Writing By: Robert Thompson,
Produced By: Liz Cuppie,Alexis Iacono,Gigi Coray Jankowski,Jeffrey Jankowski,Donna Kopp,John Kopp,Michelle Romano,James C. Ward,
Music: Machinima Sound
Cast:
Bronwyn Carrie-Wilson as Jenna
Devanny Pinn as Lyndsey
Louis Mandylor as Agent Csokas
Jonathan Goldstein as Buchanan
Jose Rosete as Morales
Victor Boneva as Javier
Noel Gugliemi as Raul
Adriana Fonseca as Manuela
Charles Chudabala as Miguel
Mauricio Ahued as Chuy
Trailers:
Escape from Ensenada


Watch-Free-HD     Download

Details
Name:Escape Plan (Escape from Ensenada) (2018) Hindi Dubbed 1080p HD x264 AAC 700MB [MovCr]
Description:
Escape Plan (Escape from Ensenada) (2018) Hindi Dubbed 1080p HD x264 AAC 700MB [MovCr]

 http://www.imdb.com/title/tt3652616/

 

General
Unique ID                   : 43205983921454919232658169749553336605 (0x20812B7965595848152AA3C03D08D11D)
Complete name               : www.MovCr.com - Escape Plan (Escape from Ensenada) (2018) Hindi Dubbed 1080p HD x264 AAC 700MB [MovCr].mkv
Format                      : Matroska
Format version              : Version 4 / Version 2
File size                   : 705 MiB
Duration                    : 1 h 16 min
Overall bit rate            : 1 284 kb/s
Movie name                  : www.MovCr.com
Encoded date                : UTC 2018-07-04 16:44:45
Writing application         : mkvmerge v23.0.0 ('The Bride Said No') 64-bit
Writing library             : libebml v1.3.6 + libmatroska v1.4.9

Video
ID                          : 1
Format                      : AVC
Format/Info                 : Advanced Video Codec
Format profile              : [email protected]
Format settings, CABAC      : Yes
Format settings, ReFrames   : 3 frames
Codec ID                    : V_MPEG4/ISO/AVC
Duration                    : 1 h 16 min
Bit rate                    : 1 156 kb/s
Width                       : 1 920 pixels
Height                      : 1 080 pixels
Display aspect ratio        : 16:9
Frame rate mode             : Constant
Frame rate                  : 23.976 (24000/1001) FPS
Color space                 : YUV
Chroma subsampling          : 4:2:0
Bit depth                   : 8 bits
Scan type                   : Progressive
Bits/(Pixel*Frame)          : 0.023
Stream size                 : 635 MiB (90%)
Title                       : www.MovCr.com
Default                     : Yes
Forced                      : No
Color range                 : Limited
Color primaries             : BT.709
Transfer characteristics    : BT.709
Matrix coefficients         : BT.709

Audio
ID                          : 2
Format                      : AAC
Format/Info                 : Advanced Audio Codec
Format profile              : LC
Codec ID                    : A_AAC
Duration                    : 1 h 16 min
Bit rate                    : 126 kb/s
Channel(s)                  : 2 channels
Channel positions           : Front: L R
Sampling rate               : 44.1 kHz
Frame rate                  : 43.066 FPS (1024 spf)
Compression mode            : Lossy
Delay relative to video     : 85 ms
Stream size                 : 69.0 MiB (10%)
Title                       : www.MovCr.com
Language                    : Hindi
Default                     : Yes
Forced                      : No



 
 
 
 
 
 
 
 
 

Category:Movies > South Dub
Lang:Hindi
Total Size:705.10 MB
Info Hash:71c91e8be6b6bdcb3f3de30284c1e4808aff2962
Added By:MAZE
Date Added:04-07-2018 17:56:45
Views:1,494
Hits:123

Download Torrent

Ratings:Not Yet Rated (Log in to rate it)


Tracker:
udp://tracker.coppersurfer.tk:6969/announce


File List: 


Comments

No comments still posted

Powered by 10 Hamsters v2-svn -|- Page Generated In 1.318855 secs.
-|- RSS FEED
Theme By: Nikkbu