[Login] or [Signup]
Login
Username:
Password:
[Signup]
[Recover Account]


Poll


You must be logged in to view polls



Torrent Details For "Bal Bramhachari 1996 Untouched 1080p WEB-HD AVC AAC By Sam"

Bal Bramhachari 1996 Untouched 1080p WEB-HD AVC AAC By Sam

Download this torrent | Magnet Download
Health:
Seeds: 0
Leechers: 0
Completed:
Last Checked: 19-11-2018 00:38:11
External Torrent
Update Stats
Download Magnet


Poster


iMDB
Imdb Picture Title: Bal Bramhachari
Year: 1996
Runtime: 163 minutes
Votes: 85
Rating: 3.7/10
Language: Hindi
Country: India
All Genres: Drama
Plot Outline: Professor Vijay Tripathi and Bhujbal Choudhury have a small land dispute between themselves forcing Bhujbal and his men to mercilessly kill Vijay making his death look as though lightning struck him. In the process Vijay's pregnant wife, Anju runs for safety only to take aid in a temple belonging to Bhagwan Bajrangbali where-by she gives birth to a baby boy who is blessed with magical powers belonging to Bhagwan Bajrangbali. She then hand over this baby to the temple Poojary, instructs him to take the baby to Thakur Raghuveer Singh and passes away. A childless Thakur wholeheartedly agrees to adopt this child naming him Mahavir alias Pawan meanwhile the Thakur's accountant Balakram has plans for him to adopt his new born baby boy and is angered at the arrival of Mahavir to the extent of attempting to kill him albeit in vain. Never the less Thakur agrees to adopt the child of Balakram naming him Balbir. Years passed by with both Balbir and Mahair growing up and started to attend the ... Written by gavin ([email protected])


Director: Prakash Mehra
Bindu Shukla
Writing By: Ravi Kapoor,Anwar Khan,Prakash Mehra,
Produced By: Neera Mehra,Prakash Mehra,
Music: Bappi Lahiri
Cast:
Puru Rajkumar as Mahavir (Pawan) Singh
Karisma Kapoor as Asha Rana
Deepak Tijori as Balbir
Simran as Seema Choudhury
Tinnu Anand as Balakram
Mukesh Khanna as Thakur Raghuveer Singh
Aashif Sheikh as Bhujbal's son
Rajeev Verma as
Shakti Kapoor as Chhote Chowdhury
Mohan Joshi as Bhujbal Choudhury


Watch-Free-HD     Download

Details
Name:Bal Bramhachari 1996 Untouched 1080p WEB-HD AVC AAC By Sam
Description:
Source                      : Over Net
Format                      : MPEG-4
Format profile              : Base Media
Codec ID                    : isom (isom/iso2/avc1/mp41)
File size                   : 3.47 GiB
Duration                    : 2 h 42 min
Overall bit rate mode       : Variable
Overall bit rate            : 3 068 kb/s
Writing application         : Lavf56.40.101

Video
ID                          : 1
Format                      : AVC
Format/Info                 : Advanced Video Codec
Format profile              : [email protected]
Format settings, CABAC      : Yes
Format settings, ReFrames   : 4 frames
Codec ID                    : avc1
Codec ID/Info               : Advanced Video Coding
Duration                    : 2 h 42 min
Bit rate                    : 3 000 kb/s
Width                       : 1 998 pixels
Height                      : 1 080 pixels
Display aspect ratio        : 1.85:1
Original display aspect rat : 1.85:1
Frame rate mode             : Variable
Frame rate                  : 25.000 FPS
Minimum frame rate          : 0.166 FPS
Maximum frame rate          : 25.000 FPS
Color space                 : YUV
Chroma subsampling          : 4:2:0
Bit depth                   : 8 bits
Scan type                   : Progressive
Bits/(Pixel*Frame)          : 0.056
Stream size                 : 3.39 GiB (98%)
Writing library             : x264 core 148 r2795 aaa9aa8

Audio
ID                          : 2
Format                      : AAC
Format/Info                 : Advanced Audio Codec
Format profile              : LC
Codec ID                    : 40
Duration                    : 2 h 42 min
Bit rate mode               : Variable
Bit rate                    : 64.4 kb/s
Maximum bit rate            : 66.0 kb/s
Channel(s)                  : 2 channels
Channel positions           : Front: L R
Sampling rate               : 48.0 kHz
Frame rate                  : 46.875 FPS (1024 spf)
Compression mode            : Lossy
Stream size                 : 74.7 MiB (2%)
Default                     : Yes
Alternate group             : 1

Screenshots:











Give Proper Credit To Olddilli Where Ever You Release

I Seed only 12 o clock in night Remain in morning after 12 o clock



Category:Movies > Bollywood
Lang:Hindi
Total Size:3.47 GB
Info Hash:861ca7795ed6468fa517b594af31dabde6673ef1
Added By:olddilli
Date Added:04-07-2018 17:40:04
Views:893
Hits:80

Download Torrent

Ratings:Not Yet Rated (Log in to rate it)


Tracker:
udp://tracker.coppersurfer.tk:6969/announce


File List: 


Comments

No comments still posted

Powered by 10 Hamsters v2-svn -|- Page Generated In 3.923867 secs.
-|- RSS FEED
Theme By: Nikkbu